Взрыв / Blast (1997) BDRip 1080p | P2

 
Автор Сообщение

Russian Mafia ®

Пол:

Стаж: 1 год 8 месяцев

Сообщений: 4257



Награды: 10 (Подробнее)

Top Releaser 3 (Количество: 1) За внесенный вклад в развитие сайта (Количество: 1) Mega Seeder 3 (Количество: 1)
Торрент-статистика

Создавать темы 31-Май-2016 13:03

[Цитировать]

Название: Любимец женщин
Оригинальное название: Blast
Год выхода: 1997
Страна: США
Студия: Cruel Stories Inc., Filmwerks
Продолжительность: 01:39:12
Жанр: боевик, ...
Режиссер: Альберт Пьюн
В ролях: Линден Эшби, Эндрю Дивофф, Кимберли Уоррен, Рутгер Хауэр, Норберт Вайссер, Тим Томерсон, Юдзи Окумото, Винсент Клин, Соня Эдди, Джилл Пирс, ...
Перевод:
- Профессиональный (двуголосый, закадровый)
- Субтитры
О фильме: Во время олимпийских игр в Атланте террористы во главе с Эндрю Дивоффом захватывают плавательный комплекс и минируют многие другие объекты.
В плавательном комплексе случайно оказывается бывший чемпион по боевым искусствам, получивший в свое время травму, пристрастившийся к наркотикам, потерявший жену (тренера по плаванию) и нашедший работу уборщиком.
Опытнейший агент Интерпола Лео инструктирует каратиста, еще не забывшего всех своих навыков, как нужно правильно вести себя в различных ситуациях. Помогает ему и отличное знание противника…

Кодек: x264
Качество: BDRip 1080p
Видео: 1920x1080 , 12000 kbps, 23,976 fps
Аудио #1: AC-3, 6 ch, 384 kbps (Rus) - DVO
Аудио #2: AC-3, 2 ch, 384 kbps (Eng)
Субтитры: Русские
Спасибо за исходник

MediaInfo

x264 [info]: frame I:758 Avg QP:21.89 size:169522
x264 [info]: frame P:31044 Avg QP:23.70 size:101312
x264 [info]: frame B:110926 Avg QP:25.88 size: 50925
x264 [info]: consecutive B-frames: 2.0% 3.1% 6.7% 19.7% 18.1% 37.0% 10.1% 1.3% 0.8% 0.5% 0.2% 0.4% 0.2%
Общее
Уникальный идентификатор : 245438583729067827723850963482151193791 (0xB8A5C0756305E5AF864F33E4BFBF8CBF)
Полное имя : C:TorrentВзрыв (Blast) 1997 BDRip 1080p.mkv
Формат : Matroska
Версия формата : Version 2
Размер файла : 8,84 Гбайт
Продолжительность : 1 ч. 39 м.
Общий поток : 12,8 Мбит/сек
Дата кодирования : UTC 2016-05-31 11:41:24
Программа кодирования : mkvmerge v4.0.0 ('The Stars were mine') сборка от Jun 6 2010 16:18:42
Библиотека кодирования : libebml v1.0.0 + libmatroska v1.0.0
Видео
Идентификатор : 1
Формат : AVC
Формат/Информация : Advanced Video Codec
Профиль формата : High@L4.1
Параметр CABAC формата : Да
Параметр ReFrames формата : 4 кадра
Идентификатор кодека : V_MPEG4/ISO/AVC
Продолжительность : 1 ч. 39 м.
Битрейт : 12,0 Мбит/сек
Ширина : 1920 пикселей
Высота : 1080 пикселей
Соотношение сторон : 16:9
Режим частоты кадров : Постоянный
Частота кадров : 23,976 кадра/сек
Цветовое пространство : YUV
Субдискретизация насыщенности : 4:2:0
Битовая глубина : 8 бит
Тип развёртки : Прогрессивная
Бит/(Пиксели*Кадры) : 0.241
Размер потока : 8,13 Гбайт (92%)
Библиотека кодирования : x264 core 146 r2538 121396c
Настройки программы : cabac=1 / ref=4 / deblock=1:-3:-3 / analyse=0x3:0x133 / me=umh / subme=11 / psy=1 / psy_rd=1.10:0.16 / mixed_ref=1 / me_range=32 / chroma_me=1 / trellis=2 / 8x8dct=1 / cqm=0 / deadzone=21,11 / fast_pskip=0 / chroma_qp_offset=-3 / threads=12 / lookahead_threads=2 / sliced_threads=0 / nr=0 / decimate=0 / interlaced=0 / bluray_compat=0 / constrained_intra=0 / bframes=12 / b_pyramid=2 / b_adapt=2 / b_bias=0 / direct=3 / weightb=1 / open_gop=0 / weightp=2 / keyint=240 / keyint_min=23 / scenecut=40 / intra_refresh=0 / rc_lookahead=60 / rc=2pass / mbtree=0 / bitrate=12000 / ratetol=1.0 / qcomp=0.60 / qpmin=0 / qpmax=69 / qpstep=4 / cplxblur=20.0 / qblur=0.5 / vbv_maxrate=50000 / vbv_bufsize=62500 / nal_hrd=none / filler=0 / ip_ratio=1.40 / pb_ratio=1.30 / aq=1:0.90
Язык : English
Default : Нет
Forced : Нет
Аудио #1
Идентификатор : 2
Формат : AC-3
Формат/Информация : Audio Coding 3
Расширение режима : CM (complete main)
Параметр Endianness формата : Big
Идентификатор кодека : A_AC3
Продолжительность : 1 ч. 39 м.
Вид битрейта : Постоянный
Битрейт : 384 Кбит/сек
Каналы : 6 каналов
Расположение каналов : Front: L C R, Side: L R, LFE
Частота : 48,0 КГц
Метод сжатия : С потерями
Размер потока : 273 Мбайт (3%)
Заголовок : DVO
Язык : Russian
Default : Нет
Forced : Нет
Аудио #2
Идентификатор : 3
Формат : AC-3
Формат/Информация : Audio Coding 3
Расширение режима : CM (complete main)
Параметр Endianness формата : Big
Идентификатор кодека : A_AC3
Продолжительность : 1 ч. 39 м.
Вид битрейта : Постоянный
Битрейт : 384 Кбит/сек
Каналы : 2 канала
Расположение каналов : Front: L R
Частота : 48,0 КГц
Метод сжатия : С потерями
Размер потока : 273 Мбайт (3%)
Язык : English
Default : Нет
Forced : Нет
Текст
Идентификатор : 4
Формат : UTF-8
Идентификатор кодека : S_TEXT/UTF8
Идентификатор кодека/Информация : UTF-8 Plain Text
Язык : Russian
Default : Нет
Forced : Нет

[Профиль] [ЛС]
Показать сообщения:    

Текущее время: Сегодня 06:00

Часовой пояс: GMT



Вы не можете начинать темы
Вы не можете отвечать на сообщения
Вы не можете редактировать свои сообщения
Вы не можете удалять свои сообщения
Вы не можете голосовать в опросах
Вы не можете прикреплять файлы к сообщениям
Вы не можете скачивать файлы