Взрыв из прошлого / Blast from the Past (1999) BDRip 1080p | D,P,A | Полная версия

 
Автор Сообщение

Russian Mafia ®

Пол:

Стаж: 1 год 8 месяцев

Сообщений: 4257



Награды: 10 (Подробнее)

Mega Seeder 1 (Количество: 1) Mega Seeder 5 (Количество: 1) Top Releaser 3 (Количество: 1)
Торрент-статистика

Создавать темы 10-Сен-2015 06:43

[Цитировать]

Взрыв из прошлого / Blast from the Past
«Повзрослеть за 5 дней»
Русское название: Взрыв из прошлого
Оригинальное название: Blast from the Past
Год выпуска: 1999
Жанр: фантастика, драма, мелодрама, комедия
Выпущено: США
Режиссер: Хью Уилсон
В ролях: Брендан Фрейзер , Алисия Сильверстоун , Кристофер Уокен , Сисси Спейсек , Дэйв Фоли , Джои Злотник , Дэйл Рауль , Хейден Тэнк , Дуглас Смит , Райан Спаркс , Дон Йессо , Скотт Томсон
Перевод: Дублированный, Профессиональный многоголосый, Авторский (одноголосый)

Сюжет фильма:
Адам Уэббер родился нормальным ребенком, но, по глупому недоразумению, провел 35 лет в бомбоубежище вместе со своими родителями. Наивный и искренний, он впервые оказывается среди людей в бушующем Лос-Анджелесе 90-х! И кто знает - может, он еще успеет наверстать упущенное?!

Качество: BDRip 1080p
Формат: AVC (библиотека кодирования x.264)
Контейнер (Расширение): MKV
Видео: 1920x800, 12300 Кбит/сек, 23,976 кадр/сек, 0,334 Бит/[Пиксели*Кадры]
Аудио №1: русский / AC3 / 5.1 / 48 kHz / 448 kbps / 16 bit |Дублированный, со вставками многоголосого|
Аудио №2: русский / AC3 / 5.1 / 48 kHz / 640 kbps / 16 bit |Профессиональный многоголосый, Сонотек|
Аудио №3: русский / AC3 / 5.1 / 48 kHz / 640 kbps / 16 bit |Авторский, Живов|
Аудио №4: английский / AC3 / 5.1 / 48 kHz / 640 kbps /
Субтитры: русские, английские
Навигация по главам(Чаптеры): есть
Продолжительность: 01:52:07Автор рипа:

MediaInfo

Format : Matroska
Format version : Version 2
File size : 11.5 GiB
Duration : 1h 52mn
Overall bit rate : 14.7 Mbps
Movie name : Vzryv iz proshlogo.(1999).BDRip.1080p.[denis100]
Encoded date : UTC 2015-09-07 18:01:30
Writing application : mkvmerge v5.8.0 ('No Sleep / Pillow') built on Sep 2 2012 15:37:04
Writing library : libebml v1.2.3 + libmatroska v1.3.0
Video
ID : 1
Format : AVC
Format/Info : Advanced Video Codec
Format profile : High@L4.1
Format settings, CABAC : Yes
Format settings, ReFrames : 5 frames
Codec ID : V_MPEG4/ISO/AVC
Duration : 1h 52mn
Bit rate : 12.3 Mbps
Width : 1 920 pixels
Height : 800 pixels
Display aspect ratio : 2.40:1
Frame rate : 23.976 fps
Color space : YUV
Chroma subsampling : 4:2:0
Bit depth : 8 bits
Scan type : Progressive
Bits/(Pixel*Frame) : 0.334
Stream size : 9.40 GiB (82%)
Title : Vzryv iz proshlogo.(1999).BDRip.1080p.[denis100]
Writing library : x264 core 148 r2597 e86f3a1
Encoding settings : cabac=1 / ref=5 / deblock=1:-3:-3 / analyse=0x3:0x133 / me=umh / subme=11 / psy=1 / psy_rd=1.00:0.05 / mixed_ref=1 / me_range=32 / chroma_me=1 / trellis=2 / 8x8dct=1 / cqm=0 / deadzone=21,11 / fast_pskip=0 / chroma_qp_offset=-3 / threads=6 / lookahead_threads=1 / sliced_threads=0 / nr=0 / decimate=1 / interlaced=0 / bluray_compat=0 / constrained_intra=0 / bframes=10 / b_pyramid=2 / b_adapt=2 / b_bias=0 / direct=1 / weightb=1 / open_gop=0 / weightp=2 / keyint=240 / keyint_min=23 / scenecut=40 / intra_refresh=0 / rc=2pass / mbtree=0 / bitrate=12300 / ratetol=1.0 / qcomp=0.60 / qpmin=0 / qpmax=69 / qpstep=4 / cplxblur=20.0 / qblur=0.5 / ip_ratio=1.40 / pb_ratio=1.30 / aq=1:0.90
Language : English
Default : Yes
Forced : No
Audio #1
ID : 2
Format : AC-3
Format/Info : Audio Coding 3
Mode extension : CM (complete main)
Codec ID : A_AC3
Duration : 1h 52mn
Bit rate mode : Constant
Bit rate : 448 Kbps
Channel(s) : 6 channels
Channel positions : Front: L C R, Side: L R, LFE
Sampling rate : 48.0 KHz
Bit depth : 16 bits
Compression mode : Lossy
Stream size : 359 MiB (3%)
Title : Дублированный
Language : Russian
Default : Yes
Forced : No
Audio #2
ID : 3
Format : AC-3
Format/Info : Audio Coding 3
Mode extension : CM (complete main)
Codec ID : A_AC3
Duration : 1h 52mn
Bit rate mode : Constant
Bit rate : 640 Kbps
Channel(s) : 6 channels
Channel positions : Front: L C R, Side: L R, LFE
Sampling rate : 48.0 KHz
Bit depth : 16 bits
Compression mode : Lossy
Stream size : 513 MiB (4%)
Title : Многоголосый закадровый, Сонотек
Language : Russian
Default : No
Forced : No
Audio #3
ID : 4
Format : AC-3
Format/Info : Audio Coding 3
Mode extension : CM (complete main)
Codec ID : A_AC3
Duration : 1h 52mn
Bit rate mode : Constant
Bit rate : 640 Kbps
Channel(s) : 6 channels
Channel positions : Front: L C R, Side: L R, LFE
Sampling rate : 48.0 KHz
Bit depth : 16 bits
Compression mode : Lossy
Stream size : 513 MiB (4%)
Title : Авторский, Живов
Language : Russian
Default : No
Forced : No
Audio #4
ID : 5
Format : AC-3
Format/Info : Audio Coding 3
Mode extension : CM (complete main)
Codec ID : A_AC3
Duration : 1h 52mn
Bit rate mode : Constant
Bit rate : 640 Kbps
Channel(s) : 6 channels
Channel positions : Front: L C R, Side: L R, LFE
Sampling rate : 48.0 KHz
Bit depth : 16 bits
Compression mode : Lossy
Stream size : 513 MiB (4%)
Language : English
Default : No
Forced : No
Text #1
ID : 6
Format : UTF-8
Codec ID : S_TEXT/UTF8
Codec ID/Info : UTF-8 Plain Text
Language : Russian
Default : No
Forced : No
Text #2
ID : 7
Format : UTF-8
Codec ID : S_TEXT/UTF8
Codec ID/Info : UTF-8 Plain Text
Language : English
Default : No
Forced : No
Menu
00:00:00.000 : en:00:00:00.000
00:03:39.761 : en:00:03:39.761
00:08:09.113 : en:00:08:09.113
00:12:36.255 : en:00:12:36.255
00:20:34.942 : en:00:20:34.942
00:23:26.446 : en:00:23:26.446
00:25:31.071 : en:00:25:31.071
00:29:38.693 : en:00:29:38.693
00:34:34.989 : en:00:34:34.989
00:39:07.178 : en:00:39:07.178
00:41:17.391 : en:00:41:17.391
00:47:15.249 : en:00:47:15.249
00:52:50.375 : en:00:52:50.375
00:53:59.569 : en:00:53:59.569
00:57:31.364 : en:00:57:31.364
01:03:00.777 : en:01:03:00.777
01:05:08.029 : en:01:05:08.029
01:09:28.539 : en:01:09:28.539
01:19:38.148 : en:01:19:38.148
01:28:18.584 : en:01:28:18.584
01:33:00.241 : en:01:33:00.241
01:40:17.553 : en:01:40:17.553
01:43:10.601 : en:01:43:10.601
01:47:27.566 : en:01:47:27.566

x264

x264 [info]: frame I:1147 Avg QP:15.39 size:232571
x264 [info]: frame P:34520 Avg QP:17.55 size:109157
x264 [info]: frame B:125627 Avg QP:19.62 size: 50157
x264 [info]: consecutive B-frames: 2.0% 3.0% 6.5% 22.9% 16.8% 28.3% 7.9% 10.6% 1.3% 0.3% 0.3%

Скриншоты

[Профиль] [ЛС]
Показать сообщения:    

Текущее время: Сегодня 20:44

Часовой пояс: GMT



Вы не можете начинать темы
Вы не можете отвечать на сообщения
Вы не можете редактировать свои сообщения
Вы не можете удалять свои сообщения
Вы не можете голосовать в опросах
Вы не можете прикреплять файлы к сообщениям
Вы не можете скачивать файлы