Взорвать Гитлера / Elser (2015) BDRip 720p | D, L | iTunes

 
Автор Сообщение

достали все ®

Пол:

Стаж: 1 год 8 месяцев

Сообщений: 6581



Награды: 12 (Подробнее)

Top Releaser 3 (Количество: 1) Mega Seeder 5 (Количество: 1) Mega Seeder 1 (Количество: 1)
Торрент-статистика

Создавать темы 06-Июн-2016 03:16

[Цитировать]

Информация о фильме
Название: Взорвать Гитлера
Оригинальное название: Elser
Год выхода: 2015
Жанр: драма
Режиссер: Оливер Хиршбигель
В ролях: Кристиан Фридель, Катарина Шюттлер, Бургхарт Клаусснер, Йохан фон Бюлов, Феликс Эйтнер, Давид Зиммершмид, Рюдигер Клинк, Симон Лихт, Корнелия Конгден, Мартин Мария Абрам
О фильме: Всего 13 минут не хватило плотнику Георгу Эльзеру, чтобы изменить ход мировой истории. 8 ноября 1939 года в мюнхенской пивной «Бюргербройкеллер», где Гитлер каждый год в годовщину «Пивного путча» выступал перед ветеранами Национал-социалистической рабочей партии Германии Эльзер вмонтировал самодельное взрывное устройство с часовым механизмом в колонну, перед которой обычно устанавливали трибуну для вождя.

Выпущено: Германия / Albolina Film, Delphi Medien, Westdeutscher Rundfunk (WDR)
Продолжительность:01:53:48
Перевод: Дублированный [iTunes] / Любительский многоголосый [Paradox & Omskbird records]
Файл
Формат: MKV
Качество: BDRip 720p
Видео: MPEG-4 AVC, 5496 kb/s, 1280x536
Аудио: Russian: AC3, 384 kb/s (6 ch), AC3, 448 kb/s (6 ch) / German: DTS, 768 kb/s (6 ch)
Субтитры: English, German

MI

Общее
Уникальный идентификатор : 182512222480614030218421896199280495340 (0x894E9350A3A8C81C91A8412EEA1B8AEC)
Полное имя : D:загрузкиВзорвать Гитлера.2015.D.MVO.720p.BluRay.mkv
Формат : Matroska
Версия формата : Version 4 / Version 2
Размер файла : 5,75 Гбайт
Продолжительность : 1 ч. 53 м.
Общий поток : 7240 Кбит/сек
Дата кодирования : UTC 2016-06-05 13:51:50
Программа кодирования : mkvmerge v8.3.0 ('Over the Horizon') 64bit
Библиотека кодирования : libebml v1.3.1 + libmatroska v1.4.2
Видео
Идентификатор : 1
Формат : AVC
Формат/Информация : Advanced Video Codec
Профиль формата : High@L4.1
Параметр CABAC формата : Да
Параметр ReFrames формата : 9 кадров
Идентификатор кодека : V_MPEG4/ISO/AVC
Продолжительность : 1 ч. 53 м.
Битрейт : 5496 Кбит/сек
Ширина : 1280 пикселей
Высота : 536 пикселей
Соотношение сторон : 2,40:1
Режим частоты кадров : Постоянный
Частота кадров : 24,000 кадра/сек
Цветовое пространство : YUV
Субдискретизация насыщенности : 4:2:0
Битовая глубина : 8 бит
Тип развёртки : Прогрессивная
Бит/(Пиксели*Кадры) : 0.334
Размер потока : 4,37 Гбайт (76%)
Заголовок : profile.php?mode=viewprofile&u=22488948
Библиотека кодирования : x264 core 142 r2431+42 c69a006 tMod [8-bit@4:2:0 X86_64]
Настройки программы : cabac=1 / ref=9 / deblock=1:-3:-3 / analyse=0x3:0x113 / me=umh / subme=11 / psy=1 / fade_compensate=0.00 / psy_rd=1.00:0.05 / mixed_ref=1 / me_range=32 / chroma_me=1 / trellis=2 / 8x8dct=1 / cqm=0 / deadzone=21,11 / fast_pskip=0 / chroma_qp_offset=-2 / threads=12 / lookahead_threads=2 / sliced_threads=0 / nr=0 / decimate=1 / interlaced=0 / bluray_compat=0 / constrained_intra=0 / fgo=0 / bframes=8 / b_pyramid=2 / b_adapt=2 / b_bias=0 / direct=3 / weightb=1 / open_gop=0 / weightp=2 / keyint=250 / keyint_min=24 / scenecut=40 / intra_refresh=0 / rc_lookahead=40 / rc=crf / mbtree=0 / crf=18.5000 / qcomp=0.60 / qpmin=0:0:0 / qpmax=69:69:69 / qpstep=4 / vbv_maxrate=30000 / vbv_bufsize=30000 / crf_max=0.0 / nal_hrd=none / filler=0 / ip_ratio=1.40 / pb_ratio=1.30 / aq=3:1.00 / aq-sensitivity=10.00 / aq-factor=1.00:1.00:1.00 / aq2=0 / aq3=0
Язык : German
Default : Да
Forced : Нет
Коэффициенты матрицы : BT.709
Аудио #1
Идентификатор : 2
Формат : AC-3
Формат/Информация : Audio Coding 3
Расширение режима : CM (complete main)
Параметр Endianness формата : Big
Идентификатор кодека : A_AC3
Продолжительность : 1 ч. 53 м.
Вид битрейта : Постоянный
Битрейт : 384 Кбит/сек
Каналы : 6 каналов
Расположение каналов : Front: L C R, Side: L R, LFE
Частота : 48,0 КГц
Битовая глубина : 16 бит
Метод сжатия : С потерями
Размер потока : 313 Мбайт (5%)
Заголовок : D
Язык : Russian
Default : Да
Forced : Нет
Аудио #2
Идентификатор : 3
Формат : AC-3
Формат/Информация : Audio Coding 3
Расширение режима : CM (complete main)
Параметр Endianness формата : Big
Идентификатор кодека : A_AC3
Продолжительность : 1 ч. 53 м.
Вид битрейта : Постоянный
Битрейт : 448 Кбит/сек
Каналы : 6 каналов
Расположение каналов : Front: L C R, Side: L R, LFE
Частота : 48,0 КГц
Битовая глубина : 16 бит
Метод сжатия : С потерями
Размер потока : 365 Мбайт (6%)
Заголовок : L
Язык : Russian
Default : Нет
Forced : Нет
Аудио #3
Идентификатор : 4
Формат : DTS
Формат/Информация : Digital Theater Systems
Режим : 16
Параметр Endianness формата : Big
Идентификатор кодека : A_DTS
Продолжительность : 1 ч. 53 м.
Вид битрейта : Постоянный
Битрейт : 768 Кбит/сек
Каналы : 6 каналов
Расположение каналов : Front: L C R, Side: L R, LFE
Частота : 48,0 КГц
Битовая глубина : 24 бит
Метод сжатия : С потерями
Размер потока : 625 Мбайт (11%)
Язык : German
Default : Нет
Forced : Нет
Текст #1
Идентификатор : 5
Формат : UTF-8
Идентификатор кодека : S_TEXT/UTF8
Идентификатор кодека/Информация : UTF-8 Plain Text
Язык : English
Default : Нет
Forced : Нет
Текст #2
Идентификатор : 6
Формат : UTF-8
Идентификатор кодека : S_TEXT/UTF8
Идентификатор кодека/Информация : UTF-8 Plain Text
Язык : German
Default : Нет
Forced : Нет
Меню
00:00:00.000 : de:
00:06:04.958 : de:
00:09:56.541 : de:
00:17:13.958 : de:
00:25:41.833 : de:
00:47:22.416 : de:
01:02:06.291 : de:
01:18:20.708 : de:
01:38:23.000 : de:

Скриншоты




[Профиль] [ЛС]
Показать сообщения:    

Текущее время: Сегодня 02:15

Часовой пояс: GMT



Вы не можете начинать темы
Вы не можете отвечать на сообщения
Вы не можете редактировать свои сообщения
Вы не можете удалять свои сообщения
Вы не можете голосовать в опросах
Вы не можете прикреплять файлы к сообщениям
Вы не можете скачивать файлы