Взлом / Home Invasion (2016) WEB-DL 720p | iTunes

 
Автор Сообщение

BOSS ®

Пол:

Стаж: 2 года 1 месяц

Сообщений: 3735

Откуда: ODESSA



Награды: 20 (Подробнее)

Top Releaser 3 (Количество: 1) Top Keeper 3 (Количество: 1) Mega Seeder 5 (Количество: 1)
Торрент-статистика

Создавать темы 31-Янв-2016 20:33

[Цитировать]

Информация о фильме
Название: Взлом
Оригинальное название: Home Invasion
Год выхода: 2016
Жанр: триллер
Режиссер: Дэвид Теннант
В ролях: Наташа Хенстридж, Лиам Дикинсон, Майкл Роджерс, Кристиан Тессьер, Бренда Кричлоу, Лиэнн Лэпп, Гари Чок, Уэсли Сэлтер, Питер Клафф, Ли Тичон
О фильме: Ужас приходит к персонажам этого психологического триллера в месте, которое они считали самым безопасным. В своем загородном доме, состоятельная дама со своим приемным сыном становятся жертвой нападения трех изощренных и беспощадных воров. Единственная их надежда на спасение - это оператор службы домашней сигнализации на другом конце телефона. Сможет ли он стать глазами пленников собственного дома и помочь им выбраться из кошмара наяву?

Выпущено: США / ARO Entertainment, Odyssey Media, TAJJ Media
Продолжительность: 01:28:31
Озвучивание: Профессиональное (многоголосое) [iTunes]
Файл
Формат: MKV
Качество: WEB-DL 720p
Видео: MPEG-4 AVC, 3927 kb/s, 1280x720
Аудио: AC3, 384 kb/s (6 ch)

MI

Format : Matroska
Format version : Version 4 / Version 2
File size : 2.72 GiB
Duration : 1h 28mn
Overall bit rate : 4 399 Kbps
Encoded date : UTC 2016-01-31 19:28:56
Writing application : mkvmerge v8.3.0 ('Over the Horizon') 64bit
Writing library : libebml v1.3.1 + libmatroska v1.4.2
Video
ID : 1
Format : AVC
Format/Info : Advanced Video Codec
Format profile : High@L3.1
Format settings, CABAC : No
Format settings, ReFrames : 2 frames
Codec ID : V_MPEG4/ISO/AVC
Duration : 1h 28mn
Bit rate : 3 927 Kbps
Width : 1 280 pixels
Height : 720 pixels
Display aspect ratio : 16:9
Frame rate mode : Constant
Frame rate : 23.976 fps
Color space : YUV
Chroma subsampling : 4:2:0
Bit depth : 8 bits
Scan type : Progressive
Bits/(Pixel*Frame) : 0.178
Stream size : 2.43 GiB (89%)
Language : English
Default : Yes
Forced : No
Color range : Limited
Color primaries : BT.709
Transfer characteristics : BT.709
Matrix coefficients : BT.709
Audio
ID : 2
Format : AC-3
Format/Info : Audio Coding 3
Mode extension : CM (complete main)
Format settings, Endianness : Big
Codec ID : A_AC3
Duration : 1h 28mn
Bit rate mode : Constant
Bit rate : 384 Kbps
Channel(s) : 6 channels
Channel positions : Front: L C R, Side: L R, LFE
Sampling rate : 48.0 KHz
Bit depth : 16 bits
Compression mode : Lossy
Stream size : 243 MiB (9%)
Language : Russian
Default : Yes
Forced : No
Menu
00:00:00.000 : en:1
00:05:51.000 : en:2
00:11:34.000 : en:3
00:17:01.000 : en:4
00:23:04.000 : en:5
00:29:36.000 : en:6
00:34:38.000 : en:7
00:39:09.000 : en:8
00:44:11.000 : en:9
00:49:31.000 : en:10
00:54:14.000 : en:11
00:59:23.000 : en:12
01:05:12.000 : en:13
01:10:44.000 : en:14
01:17:49.000 : en:15
01:24:09.000 : en:16

Скриншоты

[Профиль] [ЛС]
Показать сообщения:    

Текущее время: Сегодня 14:27

Часовой пояс: GMT



Вы не можете начинать темы
Вы не можете отвечать на сообщения
Вы не можете редактировать свои сообщения
Вы не можете удалять свои сообщения
Вы не можете голосовать в опросах
Вы не можете прикреплять файлы к сообщениям
Вы не можете скачивать файлы