Взгляд зимы / Cold Comes the Night (Це Чун / Tze Chun) [2013, США, триллер, драма, криминал, BDRemux 1080p] MVO + VO (den904) + Original (Eng) + Subs (Rus, Eng)

 
Автор Сообщение

Создавать темы 19-Июл-2014 15:15

Взгляд зимы / Cold Comes the Night

-
-Страна: США
Студия: Sasquatch Films, Syncopated Films, Three Point Capital
Жанр: триллер, драма, криминал
Год выпуска: 2013
Продолжительность: 01:30:27--Перевод 1: Профессиональный (многоголосый закадровый) iTunes Russia
Перевод 2: Одноголосый закадровый den904 по переводу JasON_BourNE
Cубтитры: русские (Feniamina, Megasmile; krilatkin), английские (full, SDH)
Оригинальная аудиодорожка: английский--Режиссер: Це Чун / Tze Chun
В ролях: Элис Ив, Брайан Крэнстон, Логан Маршалл-Грин, Урсула Паркер, Лео Фицпатрик, Эрин Каммингс, Робин Тейлор, Сара Соколович, Марселин Хьюго, Эсау Притчетт, Стивен Шеффер, Роберт Прескотт, Эшли Эткинсон, Дилан Чэлфи--Описание: Пытающаяся справиться с трудностями владелица отеля и ее дочь захвачены в заложники почти слепым профессиональным преступником, чтобы они были его глазами, когда он попытается вернуть свои деньги у грязного полицейского.--imdb | kinopoisk | Сэмпл | --Тип релиза: BDRemux 1080p [Cold Comes the Night 2013 BluRay 1080p AVC DTS-HD MA5.1-CHDBits]
Контейнер: MKV
Видео: MPEG-4 AVC / 25000 kbps / 1920x1080 / 23,976 fps / 16:9 / High Profile 4.1
Аудио 1: Russian AC3 / 5.1 / 48 kHz / 384 kbps / 16 bits |MVO, iTunes Russia|
Аудио 2: Russian DTS-HD Master Audio / 5.1 / 48 kHz / 2124 kbps / 16 bits (DTS Core: 5.1 / 48 kHz / 1509 kbps / 16 bits) |den904|
Аудио 3: English DTS-HD Master Audio / 5.1 / 48 kHz / 2117 kbps / 16 bits (DTS Core: 5.1 / 48 kHz / 1509 kbps / 16 bits) |original|
Аудио 4: English AC3 / 5.1 / 48 kHz / 640 kbps / 16 bits |Descriptive|
Формат субтитров: softsub [SRT]

MediaInfo

Общее
Уникальный идентификатор                 : 184811222363213443572544935545629537570 (0x8B0958C2B1F4B400A1AA5435860B7522)
Полное имя                               : G:\HD\Взгляд зимы.2013.Blu-Ray.Remux.(1080p).mkv
Формат                                   : Matroska
Версия формата                           : Version 4 / Version 2
Размер файла                             : 19,1 Гбайт
Продолжительность                        : 1 ч. 30 м.
Режим общего битрейта                    : Переменный
Общий поток                              : 30,3 Мбит/сек
Дата кодирования                         : UTC 2014-07-13 13:26:25
Программа кодирования                    : mkvmerge v7.0.0 ('Where We Going') 64bit built on Jun  9 2014 15:16:27
Библиотека кодирования                   : libebml v1.3.0 + libmatroska v1.4.1
Attachment                               : Yes
Видео
Идентификатор                            : 1
Формат                                   : AVC
Формат/Информация                        : Advanced Video Codec
Профиль формата                          : High@L4.1
Параметр CABAC формата                   : Да
Параметр ReFrames формата                : 2 кадра
Параметр GOP формата                     : M=1, N=10
Идентификатор кодека                     : V_MPEG4/ISO/AVC
Продолжительность                        : 1 ч. 30 м.
Вид битрейта                             : Переменный
Ширина                                   : 1920 пикселей
Высота                                   : 1080 пикселей
Соотношение сторон                       : 16:9
Режим частоты кадров                     : Постоянный
Частота кадров                           : 23,976 кадра/сек
Цветовое пространство                    : YUV
Субдискретизация насыщенности            : 4:2:0
Битовая глубина                          : 8 бит
Тип развёртки                            : Прогрессивная
Default                                  : Да
Forced                                   : Нет
Аудио #1
Идентификатор                            : 2
Формат                                   : AC-3
Формат/Информация                        : Audio Coding 3
Расширение режима                        : CM (complete main)
Параметр Endianness формата              : Big
Идентификатор кодека                     : A_AC3
Продолжительность                        : 1 ч. 30 м.
Вид битрейта                             : Постоянный
Битрейт                                  : 384 Кбит/сек
Каналы                                   : 6 каналов
Расположение каналов                     : Front: L C R, Side: L R, LFE
Частота                                  : 48,0 КГц
Битовая глубина                          : 16 бит
Метод сжатия                             : С потерями
Размер потока                            : 248 Мбайт (1%)
Заголовок                                : MVO, iTunes Russia
Язык                                     : Russian
Default                                  : Нет
Forced                                   : Нет
Аудио #2
Идентификатор                            : 3
Формат                                   : DTS
Формат/Информация                        : Digital Theater Systems
Профиль формата                          : MA / Core
Режим                                    : 16
Параметр Endianness формата              : Big
Идентификатор кодека                     : A_DTS
Продолжительность                        : 1 ч. 30 м.
Вид битрейта                             : Переменный
Битрейт                                  : Неизвестно / 1509 Кбит/сек
Каналы                                   : 6 каналов
Расположение каналов                     : Front: L C R, Side: L R, LFE
Частота                                  : 48,0 КГц
Битовая глубина                          : 16 бит
Метод сжатия                             : Без потерь / Lossy
Заголовок                                : den904
Язык                                     : Russian
Default                                  : Да
Forced                                   : Нет
Аудио #3
Идентификатор                            : 4
Формат                                   : DTS
Формат/Информация                        : Digital Theater Systems
Профиль формата                          : MA / Core
Режим                                    : 16
Параметр Endianness формата              : Big
Идентификатор кодека                     : A_DTS
Продолжительность                        : 1 ч. 30 м.
Вид битрейта                             : Переменный
Битрейт                                  : Неизвестно / 1509 Кбит/сек
Каналы                                   : 6 каналов
Расположение каналов                     : Front: L C R, Side: L R, LFE
Частота                                  : 48,0 КГц
Битовая глубина                          : 16 бит
Метод сжатия                             : Без потерь / Lossy
Язык                                     : English
Default                                  : Нет
Forced                                   : Нет
Аудио #4
Идентификатор                            : 5
Формат                                   : AC-3
Формат/Информация                        : Audio Coding 3
Расширение режима                        : CM (complete main)
Параметр Endianness формата              : Big
Идентификатор кодека                     : A_AC3
Продолжительность                        : 1 ч. 30 м.
Вид битрейта                             : Постоянный
Битрейт                                  : 640 Кбит/сек
Каналы                                   : 6 каналов
Расположение каналов                     : Front: L C R, Side: L R, LFE
Частота                                  : 48,0 КГц
Битовая глубина                          : 16 бит
Метод сжатия                             : С потерями
Размер потока                            : 414 Мбайт (2%)
Заголовок                                : Descriptive
Язык                                     : English
Default                                  : Нет
Forced                                   : Нет
Текст #1
Идентификатор                            : 6
Формат                                   : UTF-8
Идентификатор кодека                     : S_TEXT/UTF8
Идентификатор кодека/Информация          : UTF-8 Plain Text
Заголовок                                : Feniamina, Megasmile
Язык                                     : Russian
Default                                  : Нет
Forced                                   : Нет
Текст #2
Идентификатор                            : 7
Формат                                   : UTF-8
Идентификатор кодека                     : S_TEXT/UTF8
Идентификатор кодека/Информация          : UTF-8 Plain Text
Заголовок                                : krilatkin
Язык                                     : Russian
Default                                  : Нет
Forced                                   : Нет
Текст #3
Идентификатор                            : 8
Формат                                   : UTF-8
Идентификатор кодека                     : S_TEXT/UTF8
Идентификатор кодека/Информация          : UTF-8 Plain Text
Заголовок                                : full
Язык                                     : English
Default                                  : Нет
Forced                                   : Нет
Текст #4
Идентификатор                            : 9
Формат                                   : UTF-8
Идентификатор кодека                     : S_TEXT/UTF8
Идентификатор кодека/Информация          : UTF-8 Plain Text
Заголовок                                : SDH
Язык                                     : English
Default                                  : Нет
Forced                                   : Нет
Меню
00:00:00.000                             : :Chapter 01
00:06:12.955                             : :Chapter 02
00:09:53.718                             : :Chapter 03
00:11:29.855                             : :Chapter 04
00:17:59.369                             : :Chapter 05
00:24:12.367                             : :Chapter 06
00:27:10.086                             : :Chapter 07
00:32:03.838                             : :Chapter 08
00:37:40.466                             : :Chapter 09
00:42:18.661                             : :Chapter 10
00:46:12.019                             : :Chapter 11
00:51:01.767                             : :Chapter 12
00:56:27.342                             : :Chapter 13
01:04:35.997                             : :Chapter 14
01:07:37.511                             : :Chapter 15
01:15:16.720                             : :Chapter 16

Скриншоты


Дополнительно

За дорожку №1 спасибо HDCLUB
Дорожка №2 получена наложением чистого голоса на центр декодированного DTS-HD MA.
 
Показать сообщения:    

Текущее время: Сегодня 02:40

Часовой пояс: GMT



Вы не можете начинать темы
Вы не можете отвечать на сообщения
Вы не можете редактировать свои сообщения
Вы не можете удалять свои сообщения
Вы не можете голосовать в опросах
Вы не можете прикреплять файлы к сообщениям
Вы не можете скачивать файлы