Взгляд зимы / Cold Comes the Night (Це Чун / Tze Chun) [2013, США, триллер, драма, криминал, BDRip 720p] MVO + VO (den904) + Original (Eng) + Subs (Rus, Eng)

 
Автор Сообщение

Создавать темы 19-Июл-2014 15:15

Взгляд зимы / Cold Comes the Night

-
-Страна: США
Студия: Sasquatch Films, Syncopated Films, Three Point Capital
Жанр: триллер, драма, криминал
Год выпуска: 2013
Продолжительность: 01:30:27--Перевод 1: Профессиональный (многоголосый закадровый) iTunes Russia
Перевод 2: Одноголосый закадровый den904 по переводу JasON_BourNE
Cубтитры: русские (Feniamina, Megasmile; krilatkin), английские (full, SDH)
Оригинальная аудиодорожка: английский--Режиссер: Це Чун / Tze Chun
В ролях: Элис Ив, Брайан Крэнстон, Логан Маршалл-Грин, Урсула Паркер, Лео Фицпатрик, Эрин Каммингс, Робин Тейлор, Сара Соколович, Марселин Хьюго, Эсау Притчетт, Стивен Шеффер, Роберт Прескотт, Эшли Эткинсон, Дилан Чэлфи--Описание: Пытающаяся справиться с трудностями владелица отеля и ее дочь захвачены в заложники почти слепым профессиональным преступником, чтобы они были его глазами, когда он попытается вернуть свои деньги у грязного полицейского.--imdb | kinopoisk | Сэмпл | --Тип релиза: BDRip 720p [Cold Comes the Night 2013 720p BluRay DTS x264-CtrlHD]
Контейнер: MKV
Видео: MPEG-4 AVC / 6717 kbps / 1280x720 / 23,976 fps / 16:9 / High Profile 4.1
Аудио 1: Russian AC3 / 5.1 / 48 kHz / 384 kbps / 16 bits |MVO, iTunes Russia|
Аудио 2: Russian AC3 / 5.1 / 48 kHz / 640 kbps / 16 bits |den904|
Аудио 3: English AC3 / 5.1 / 48 kHz / 640 kbps / 16 bits |original|
Аудио 4: English AC3 / 5.1 / 48 kHz / 640 kbps / 16 bits |Descriptive|
Формат субтитров: softsub [SRT]

MediaInfo

Общее
Уникальный идентификатор                 : 248995228723873242912535411869591113701 (0xBB52BC986DE2B352879D25AF40018FE5)
Полное имя                               : G:\HD\Взгляд зимы.2013.BDRip.(720p).mkv
Формат                                   : Matroska
Версия формата                           : Version 4 / Version 2
Размер файла                             : 5,70 Гбайт
Продолжительность                        : 1 ч. 30 м.
Общий поток                              : 9024 Кбит/сек
Дата кодирования                         : UTC 2014-07-13 14:06:13
Программа кодирования                    : mkvmerge v7.0.0 ('Where We Going') 64bit built on Jun  9 2014 15:16:27
Библиотека кодирования                   : libebml v1.3.0 + libmatroska v1.4.1
Attachment                               : Yes
Видео
Идентификатор                            : 1
Формат                                   : AVC
Формат/Информация                        : Advanced Video Codec
Профиль формата                          : High@L4.1
Параметр CABAC формата                   : Да
Параметр ReFrames формата                : 9 кадров
Идентификатор кодека                     : V_MPEG4/ISO/AVC
Продолжительность                        : 1 ч. 30 м.
Битрейт                                  : 6717 Кбит/сек
Ширина                                   : 1280 пикселей
Высота                                   : 720 пикселей
Соотношение сторон                       : 16:9
Режим частоты кадров                     : Постоянный
Частота кадров                           : 23,976 кадра/сек
Цветовое пространство                    : YUV
Субдискретизация насыщенности            : 4:2:0
Битовая глубина                          : 8 бит
Тип развёртки                            : Прогрессивная
Бит/(Пиксели*Кадры)                      : 0.304
Размер потока                            : 4,13 Гбайт (72%)
Библиотека кодирования                   : x264 core 133 r2334 a3ac64b
Настройки программы                      : cabac=1 / ref=9 / deblock=1:-3:-3 / analyse=0x3:0x113 / me=tesa / subme=11 / psy=1 / psy_rd=1.00:0.00 / mixed_ref=1 / me_range=24 / chroma_me=1 / trellis=2 / 8x8dct=1 / cqm=0 / deadzone=21,11 / fast_pskip=0 / chroma_qp_offset=-4 / threads=12 / lookahead_threads=2 / sliced_threads=0 / nr=0 / decimate=0 / interlaced=0 / bluray_compat=0 / constrained_intra=0 / bframes=8 / b_pyramid=2 / b_adapt=2 / b_bias=0 / direct=3 / weightb=1 / open_gop=0 / weightp=2 / keyint=250 / keyint_min=23 / scenecut=40 / intra_refresh=0 / rc=2pass / mbtree=0 / bitrate=6717 / ratetol=1.0 / qcomp=0.65 / qpmin=0 / qpmax=69 / qpstep=4 / cplxblur=20.0 / qblur=0.5 / ip_ratio=1.20 / pb_ratio=1.30 / aq=1:0.80
Язык                                     : English
Default                                  : Да
Forced                                   : Нет
Аудио #1
Идентификатор                            : 2
Формат                                   : AC-3
Формат/Информация                        : Audio Coding 3
Расширение режима                        : CM (complete main)
Параметр Endianness формата              : Big
Идентификатор кодека                     : A_AC3
Продолжительность                        : 1 ч. 30 м.
Вид битрейта                             : Постоянный
Битрейт                                  : 384 Кбит/сек
Каналы                                   : 6 каналов
Расположение каналов                     : Front: L C R, Side: L R, LFE
Частота                                  : 48,0 КГц
Битовая глубина                          : 16 бит
Метод сжатия                             : С потерями
Размер потока                            : 248 Мбайт (4%)
Заголовок                                : MVO, iTunes Russia
Язык                                     : Russian
Default                                  : Нет
Forced                                   : Нет
Аудио #2
Идентификатор                            : 3
Формат                                   : AC-3
Формат/Информация                        : Audio Coding 3
Расширение режима                        : CM (complete main)
Параметр Endianness формата              : Big
Идентификатор кодека                     : A_AC3
Продолжительность                        : 1 ч. 30 м.
Вид битрейта                             : Постоянный
Битрейт                                  : 640 Кбит/сек
Каналы                                   : 6 каналов
Расположение каналов                     : Front: L C R, Side: L R, LFE
Частота                                  : 48,0 КГц
Битовая глубина                          : 16 бит
Метод сжатия                             : С потерями
Размер потока                            : 414 Мбайт (7%)
Заголовок                                : den904
Язык                                     : Russian
Default                                  : Да
Forced                                   : Нет
Аудио #3
Идентификатор                            : 4
Формат                                   : AC-3
Формат/Информация                        : Audio Coding 3
Расширение режима                        : CM (complete main)
Параметр Endianness формата              : Big
Идентификатор кодека                     : A_AC3
Продолжительность                        : 1 ч. 30 м.
Вид битрейта                             : Постоянный
Битрейт                                  : 640 Кбит/сек
Каналы                                   : 6 каналов
Расположение каналов                     : Front: L C R, Side: L R, LFE
Частота                                  : 48,0 КГц
Битовая глубина                          : 16 бит
Метод сжатия                             : С потерями
Размер потока                            : 414 Мбайт (7%)
Язык                                     : English
Default                                  : Нет
Forced                                   : Нет
Аудио #4
Идентификатор                            : 5
Формат                                   : AC-3
Формат/Информация                        : Audio Coding 3
Расширение режима                        : CM (complete main)
Параметр Endianness формата              : Big
Идентификатор кодека                     : A_AC3
Продолжительность                        : 1 ч. 30 м.
Вид битрейта                             : Постоянный
Битрейт                                  : 640 Кбит/сек
Каналы                                   : 6 каналов
Расположение каналов                     : Front: L C R, Side: L R, LFE
Частота                                  : 48,0 КГц
Битовая глубина                          : 16 бит
Метод сжатия                             : С потерями
Размер потока                            : 414 Мбайт (7%)
Заголовок                                : Descriptive
Язык                                     : English
Default                                  : Нет
Forced                                   : Нет
Текст #1
Идентификатор                            : 6
Формат                                   : UTF-8
Идентификатор кодека                     : S_TEXT/UTF8
Идентификатор кодека/Информация          : UTF-8 Plain Text
Заголовок                                : Feniamina, Megasmile
Язык                                     : Russian
Default                                  : Нет
Forced                                   : Нет
Текст #2
Идентификатор                            : 7
Формат                                   : UTF-8
Идентификатор кодека                     : S_TEXT/UTF8
Идентификатор кодека/Информация          : UTF-8 Plain Text
Заголовок                                : krilatkin
Язык                                     : Russian
Default                                  : Нет
Forced                                   : Нет
Текст #3
Идентификатор                            : 8
Формат                                   : UTF-8
Идентификатор кодека                     : S_TEXT/UTF8
Идентификатор кодека/Информация          : UTF-8 Plain Text
Заголовок                                : full
Язык                                     : English
Default                                  : Нет
Forced                                   : Нет
Текст #4
Идентификатор                            : 9
Формат                                   : UTF-8
Идентификатор кодека                     : S_TEXT/UTF8
Идентификатор кодека/Информация          : UTF-8 Plain Text
Заголовок                                : SDH
Язык                                     : English
Default                                  : Нет
Forced                                   : Нет
Меню
00:00:00.000                             : :Chapter 01
00:06:12.955                             : :Chapter 02
00:09:53.718                             : :Chapter 03
00:11:29.855                             : :Chapter 04
00:17:59.369                             : :Chapter 05
00:24:12.367                             : :Chapter 06
00:27:10.086                             : :Chapter 07
00:32:03.838                             : :Chapter 08
00:37:40.466                             : :Chapter 09
00:42:18.661                             : :Chapter 10
00:46:12.019                             : :Chapter 11
00:51:01.767                             : :Chapter 12
00:56:27.342                             : :Chapter 13
01:04:35.997                             : :Chapter 14
01:07:37.511                             : :Chapter 15
01:15:16.720                             : :Chapter 16

Скриншоты


Дополнительно

За дорожку №1 спасибо HDCLUB
Дорожка №2 получена наложением чистого голоса на центр декодированного DTS-HD MA.

Cold Comes the Night 2013 720p BluRay DTS x264-CtrlHD

Cold.Comes.The.Night.2013.720p.BluRay.DTS.x264-CtrlHD
.GENERAL iNFORMATiON
RUNTiME.......: 01h:30m:27s
SiZE..........: 17.8 GB
ViDEO.CODEC...: x264, 2pass
FRAMERATE.....: 23.976fps
BiTRATE.......: 6717 Kbps
RESOLUTiON....: 1280x720
AUDiO.........: English DTS 5.1 @ 1.5 Mbps
SUBTiTLES.....: English, English(SDH), French, Danish, Persian
SUBS.FORMAT...: UTF-8 embedded srt
CHAPTERS......: Named like on Blu-ray
SOURCE........: Cold Comes the Night 2013 1080p Blu-ray AVC DTS-HD MA 5.1-PublicHD
iMDB.RATiNG...: 5.8/10 from 1,917 users
iMDB.LiNK.....: http://www.imdb.com/title/tt2511428/
.Notes
Special thanks to all the CtrlHD members!
Source vs Encode


 
Показать сообщения:    

Текущее время: Сегодня 08:59

Часовой пояс: GMT



Вы не можете начинать темы
Вы не можете отвечать на сообщения
Вы не можете редактировать свои сообщения
Вы не можете удалять свои сообщения
Вы не можете голосовать в опросах
Вы не можете прикреплять файлы к сообщениям
Вы не можете скачивать файлы