Вечность / Forever [01x01-06 из 13] (2014) WEB-DL 1080p | BaibaKo

 
Автор Сообщение

Белочка ®

Пол:

Стаж: 5 лет 1 месяц

Сообщений: 2089



Награды: 1 (Подробнее)

Girls (Количество: 1)
Торрент-статистика

Создавать темы 24-Окт-2014 22:18

[Цитировать]

Информация о фильме
Название: Вечность
Оригинальное название: Forever
Год выхода: 2014
Жанр: фантастика, драма
Режиссер: Мэтью Миллер
В ролях: Йоан Гриффит, Джоэл Мур, Алана Де Ла Гарза, Джадд Хёрш, Маккензи Мози, Барбара Ив Харрис, Донни Кешаварц, Шэмика Коттон, Мик Энджел и др.
О фильме:
У доктора Генри Моргана, звездного судебно-медицинского эксперта Нью-Йорка, есть секрет. Он изучает мертвых не только, чтобы раскрывать уголовные дела. Он это делает, чтобы раскрыть тайну, которая ускользала от него на протяжении 200 лет — причину своего бессмертия…

MI

Общее
Уникальный идентификатор : 231643725845876021455643019276761550258 (0xAE44F57427195611A7C2F14BD0F5CDB2)
Полное имя : Forever.s01.WEBDL.1080p.BaibaKoForever.s01e02.HD1080p.WEB-DL.Rus.Eng.BaibaKo.tv.mkv
Формат : Matroska
Версия формата : Version 4 / Version 2
Размер файла : 1,71 Гбайт
Продолжительность : 43 м.
Общий поток : 5675 Кбит/сек
Дата кодирования : UTC 2014-09-24 23:23:00
Программа кодирования : mkvmerge v6.7.0 ('Back to the Ground') 64bit built on Jan 8 2014 15:10:52
Библиотека кодирования : libebml v1.3.0 + libmatroska v1.4.1
Видео
Идентификатор : 1
Формат : AVC
Формат/Информация : Advanced Video Codec
Профиль формата : High@L4.0
Параметр CABAC формата : Да
Параметр ReFrames формата : 4 кадра
Идентификатор кодека : V_MPEG4/ISO/AVC
Продолжительность : 43 м.
Битрейт : 4794 Кбит/сек
Ширина : 1916 пикселей
Высота : 1076 пикселей
Соотношение сторон : 16:9
Режим частоты кадров : Постоянный
Частота кадров : 23,976 кадра/сек
Цветовое пространство : YUV
Субдискретизация насыщенности : 4:2:0
Битовая глубина : 8 бит
Тип развёртки : Прогрессивная
Бит/(Пиксели*Кадры) : 0.097
Размер потока : 1,44 Гбайт (84%)
Язык : English
Default : Да
Forced : Нет
Основные цвета : BT.709
Характеристики трансфера : BT.709
Коэффициенты матрицы : BT.709
Аудио #1
Идентификатор : 2
Формат : AC-3
Формат/Информация : Audio Coding 3
Расширение режима : CM (complete main)
Параметр Endianness формата : Big
Идентификатор кодека : A_AC3
Продолжительность : 43 м.
Вид битрейта : Постоянный
Битрейт : 384 Кбит/сек
Каналы : 6 каналов
Расположение каналов : Front: L C R, Side: L R, LFE
Частота : 48,0 КГц
Битовая глубина : 16 бит
Метод сжатия : С потерями
Размер потока : 118 Мбайт (7%)
Язык : Russian
Default : Да
Forced : Нет
Аудио #2
Идентификатор : 3
Формат : AC-3
Формат/Информация : Audio Coding 3
Расширение режима : CM (complete main)
Параметр Endianness формата : Big
Идентификатор кодека : A_AC3
Продолжительность : 43 м.
Вид битрейта : Постоянный
Битрейт : 384 Кбит/сек
Каналы : 6 каналов
Расположение каналов : Front: L C R, Side: L R, LFE
Частота : 48,0 КГц
Битовая глубина : 16 бит
Метод сжатия : С потерями
Размер потока : 118 Мбайт (7%)
Язык : English
Default : Нет
Forced : Нет

Страна: США
Продолжительность: ~ 00:43:00
Перевод: Любительский (двухголосый, закадровый) - BaibaKo
Файл
Кодек: x264
Качество: WEB-DL 1080p
Видео: 1916x1076 at 23.976 fps, x264, ~5000 kbps avg
Звук: Русский, английский (AC3, 6 ch, 384 Кбит/с)

Скриншоты

[Профиль] [ЛС]
Показать сообщения:    

Текущее время: Сегодня 12:29

Часовой пояс: GMT



Вы не можете начинать темы
Вы не можете отвечать на сообщения
Вы не можете редактировать свои сообщения
Вы не можете удалять свои сообщения
Вы не можете голосовать в опросах
Вы не можете прикреплять файлы к сообщениям
Вы не можете скачивать файлы