Вечеринка / Американская жесть / American Crude (Крэйг Шеффер / Craig Sheffer) [2008 г., Комедия, криминал, драма, DVDRip] MVO

 
Автор Сообщение

painkiller ®

Стаж: 2 года 3 месяца

Сообщений: 582



Награды: Нет

Торрент-статистика

Создавать темы 14-Авг-2014 13:00

[Цитировать]

Вечеринка / Американская жесть /
American Crude
- Год выпуска: 2008
Страна: США
Жанр: Комедия, криминал, драма
Продолжительность: 1 ч 33 мин 54 сек
Перевод: Профессиональный (многоголосый, закадровый)
Русские субтитры: нет-Режиссер: Крэйг Шеффер / Craig Sheffer
В ролях: Роб Шнайдер, Рэймонд Дж. Бэрри, Аарон Брамфилд, Gino Cabanas, Ски Карр, Клаудия Чои, Daniel Colletti, Аманда Детмер, Martin Dorsla, Майкл Кларк Дункан, Дженнифер Эспозито-Описание:
Долгие годы Джонни кропотливо выстраивал схему становления на путь, ведущий к исполнению Американской Мечты. И все складывалось весьма успешно до момента, пока он не решил устроить вечеринку для своего лучшего друга Билла.
Под эгидой этой гениальной идеи на вечеринку стягиваются в высшей степени эксцентричные персонажи (включая транссексуала легкого поведения, сбежавшую девственницу, бывшего мошенника и короля Порно).
Неистовый вечер еще не подошел к концу, а все тщательно спланированные проекты Джонни начинают терпеть крах. Одна сумасшедшая ночка — и жизнь катится в тар-тарары…- -Качество: DVDRip
Формат: AVI
Видео кодек: XviD
Аудио кодек: MP3
Видео: 672 x 352, 25 fps, 975 kbps, 0.165 bit/(pixel*frame)
Аудио: 48000 Hz, MPEG Layer 3, 2 ch, 128 kbps CBR
-

скриншоты


Резервные скриншоты



-

MI

Format                                   : AVI
Format/Info                              : Audio Video Interleave
File size                                : 747 MiB
Duration                                 : 1h 33mn
Overall bit rate                         : 1 113 Kbps
Writing application                      : VirtualDubMod 1.5.10.3 | www.virtualdub-fr.org || (build 2550/release)
Writing library                          : VirtualDubMod build 2550/release
Video
ID                                       : 0
Format                                   : MPEG-4 Visual
Format profile                           : Advanced Simple@L5
Format settings, BVOP                    : 2
Format settings, QPel                    : No
Format settings, GMC                     : No warppoints
Format settings, Matrix                  : Custom
Codec ID                                 : XVID
Codec ID/Hint                            : XviD
Duration                                 : 1h 33mn
Bit rate                                 : 975 Kbps
Width                                    : 672 pixels
Height                                   : 352 pixels
Display aspect ratio                     : 1.909
Frame rate                               : 25.000 fps
Color space                              : YUV
Chroma subsampling                       : 4:2:0
Bit depth                                : 8 bits
Scan type                                : Progressive
Compression mode                         : Lossy
Bits/(Pixel*Frame)                       : 0.165
Stream size                              : 655 MiB (88%)
Writing library                          : XviD 73
Audio
ID                                       : 1
Format                                   : MPEG Audio
Format version                           : Version 1
Format profile                           : Layer 3
Mode                                     : Joint stereo
Mode extension                           : MS Stereo
Codec ID                                 : 55
Codec ID/Hint                            : MP3
Duration                                 : 1h 33mn
Bit rate mode                            : Constant
Bit rate                                 : 128 Kbps
Channel(s)                               : 2 channels
Sampling rate                            : 48.0 KHz
Compression mode                         : Lossy
Stream size                              : 86.0 MiB (12%)
Alignment                                : Aligned on interleavesInterleave, duration                     : 40 ms (1.00 video frame)\
Interleave, preload duration             : 504 ms
Writing library                          : LAME3.99r
Encoding settings                        : -m j -V 4 -q 0 -lowpass 17 -b 128

-
--
[Профиль] [ЛС]

Создавать темы 06-Авг-2015 23:14 (спустя 11 месяцев 23 дня)

Топик был перенесен из форума Фильмы до 2014 года в форум Фильмы до 2012 года
sergej644
 

Создавать темы 12-Июн-2016 08:51 (спустя 1 год 9 месяцев)

Топик был перенесен из форума Фильмы 2011 года в форум Фильмы 2006-2008 года
Russian Mafia
 
Показать сообщения:    

Текущее время: Сегодня 07:04

Часовой пояс: GMT



Вы не можете начинать темы
Вы не можете отвечать на сообщения
Вы не можете редактировать свои сообщения
Вы не можете удалять свои сообщения
Вы не можете голосовать в опросах
Вы не можете прикреплять файлы к сообщениям
Вы не можете скачивать файлы