Вечеринка монстров / Monster Party (2018) WEBRip 720p | L2

 
Author Message

BOSS ®

Gender:

Longevity: 4 years 9 months

Posts: 14123

Location: ODESSA



: 22 ()

Top Releaser 2 (1) Top Keeper 3 (1) Top Keeper 1 (1)
Торрент-статистика

Post 10-Nov-2018 17:56

[Quote]

Информация о фильме
Название: Вечеринка монстров
Оригинальное название: Monster Party
Год выхода: 2018
Жанр: Ужасы, триллер, детективя
Режиссер: Крис фон Хоффманн
В ролях: Джулиан МакМэхон, Робин Танни, Сэм Страйк, Вирджиния Гарднер, Брэндон Майкл Холл, Эрин Мориарти, Киан Лоули, Лэнс Реддик, Диего Бонета, Джэми Уорд
О фильме:
Трое подростков проникают в дом богачей, чтобы ограбить его во время званого обеда, но оказываются в смертельной ловушке.

Страна: США, Automatik, Dark Web Productions, Defiant Studios
Продолжительность: 01:29:52
Перевод: Любительский (двухголосый закадровый) | HiWay Grope
Файл
Кодек: MPEG-4 AVC/x.264
Качество: WEBRip 720p
Видео: 1280x530, 25.000 fps, ~2503 kbps, 0.154 bit/pixel
Звук:
Аудио rus: AC3, 48 kHz, 6 ch, 384 Kbps
Субтитры: отсутствуют
Реклама: присутствует
Семпл

MediaInfo:

General
Unique ID : 315731985899282694751226145867200131772 (0xED87C4C342808E4C2B2BAA1DB7FEF2BC)
Complete name : D:Monster.Party.2018.720p.WEBRip.HiWayGropeMonster.Party.2018.720p.WEBRip.HiWayGrope.mkv
Format : Matroska
Format version : Version 4 / Version 2
File size : 1.81 GiB
Duration : 1 h 29 min
Overall bit rate : 2 889 kb/s
Encoded date : UTC 2018-11-10 12:04:21
Writing application : mkvmerge v28.1.0 ('Morning Child') 64-bit
Writing library : libebml v1.3.6 + libmatroska v1.4.9
Video
ID : 1
Format : AVC
Format/Info : Advanced Video Codec
Format profile : Main@L3.1
Format settings : CABAC / 4 Ref Frames
Format settings, CABAC : Yes
Format settings, RefFrames : 4 frames
Codec ID : V_MPEG4/ISO/AVC
Duration : 1 h 29 min
Bit rate : 2 503 kb/s
Width : 1 280 pixels
Height : 530 pixels
Display aspect ratio : 2.40:1
Frame rate mode : Constant
Frame rate : 23.976 (24000/1001) FPS
Standard : NTSC
Color space : YUV
Chroma subsampling : 4:2:0
Bit depth : 8 bits
Scan type : Progressive
Bits/(Pixel*Frame) : 0.154
Stream size : 1.57 GiB (87%)
Language : English
Default : Yes
Forced : No
Color range : Limited
Color primaries : BT.601 NTSC
Transfer characteristics : BT.601
Matrix coefficients : BT.601
Audio
ID : 2
Format : AC-3
Format/Info : Audio Coding 3
Codec ID : A_AC3
Duration : 1 h 29 min
Bit rate mode : Constant
Bit rate : 384 kb/s
Channel(s) : 6 channels
Channel positions : Front: L C R, Side: L R, LFE
Sampling rate : 48.0 kHz
Frame rate : 31.250 FPS (1536 SPF)
Bit depth : 16 bits
Compression mode : Lossy
Stream size : 247 MiB (13%)
Language : Russian
Service kind : Complete Main
Default : Yes
Forced : No

Скриншоты

Релиз от: HiWay Grope
[Profile] [PM]
Display posts from previous:    

The time now is: Today 08:17

All times are GMT



You cannot post new topics in this forum
You cannot reply to topics in this forum
You cannot edit your posts in this forum
You cannot delete your posts in this forum
You cannot vote in polls in this forum
You cannot attach files in this forum
You cannot download files in this forum