Ветер (Роберт Саакянц) [1988, Рисованный мультфильм, WEBRip]Арменфильм

 
Автор Сообщение

TorrentFilm ®

Пол:

Стаж: 2 года

Сообщений: 7741



Награды: Нет

Торрент-статистика

Создавать темы 03-Янв-2016 00:06

[Цитировать]

Ветер
Страна: CCCР
Жанр: Рисованный мультфильм
Продолжительность: 00:18:19
Год выпуска: 1988
Русские субтитры: нет
Режиссёр: Роберт Саакянц
Описание: Дежурный военной базы становится свидетелем странных событий. Радиация образовавшаяся в результате ядерной войны с поверхности земли начинает проникать в бункер.Мир сузился до ракетного полигона, видного из окна командного пункта, откуда нет выхода. Для военного вахтёра не прекращается аттракцион "проверка документов входящих и выходящих". Те и другие становятся всё причудливей и причудливей, а снаружи внутрь настойчиво просится ветер, очень странный ветер...
Доп. информация: Выпущено:«Арменфильм»
Очень редкий сюрреалистический мультфильм “Ветер” классика армянской анимации Роберта Саакянца ("Ух ты, говорящая рыба", "Ишь ты, масленица"). Один из самых ярких и необычных мультфильмов времён перестройки. Мультфильм исключительно для взрослых. Тема - ядерная война и последствия радиации. Место действия - бункер, где управляют советскими ядерными боеголовками.
Релиз группы:
Качество: WEBRip
Формат: AVI
Видео: 640x480 (1.33:1), 25 fps, XviD MPEG-4 ~2297 kbps avg, 0.30 bit/pixel
Аудио: 48 kHz, AC3 Dolby Digital, 2/0 (L,R) ch, ~192.00 kbps avg
Субтитры: нет

Подробные технические данные

Format : AVIFormat/Info : Audio Video InterleaveFile size : 328 MiBDuration : 18mn 19sOverall bit rate : 2 500 KbpsWriting application : VirtualDubModRus 1.5.10.2 (build 2542/release)Copyright : Rutracker.orgComment : WEBRip by dvdss
VideoID : 0Format : MPEG-4 VisualFormat profile : Advanced Simple@L5Format settings, BVOP : 2Format settings, QPel : NoFormat settings, GMC : No warppointsFormat settings, Matrix : CustomCodec ID : XVIDCodec ID/Hint : XviDDuration : 18mn 19sBit rate : 2 298 KbpsWidth : 640 pixelsHeight : 480 pixelsDisplay aspect ratio : 5:4Original display aspect ratio : 4:3Frame rate : 25.000 fpsColor space : YUVChroma subsampling : 4:2:0Bit depth : 8 bitsScan type : ProgressiveCompression mode : LossyBits/(Pixel*Frame) : 0.299Stream size : 301 MiB (92%)Writing library : XviD 65
AudioID : 1Format : AC-3Format/Info : Audio Coding 3Mode extension : CM (complete main)Format settings, Endianness : BigCodec ID : 2000Duration : 18mn 19sBit rate mode : ConstantBit rate : 192 KbpsChannel(s) : 2 channelsChannel positions : Front: L RSampling rate : 48.0 KHzBit depth : 16 bitsCompression mode : LossyStream size : 25.2 MiB (8%)Alignment : Aligned on interleavesInterleave, duration : 40 ms (1.00 video frame)Interleave, preload duration : 512 ms

Скриншоты

[Профиль] [ЛС]
Показать сообщения:    

Текущее время: Сегодня 20:47

Часовой пояс: GMT



Вы не можете начинать темы
Вы не можете отвечать на сообщения
Вы не можете редактировать свои сообщения
Вы не можете удалять свои сообщения
Вы не можете голосовать в опросах
Вы не можете прикреплять файлы к сообщениям
Вы не можете скачивать файлы