Весёлые ребята;) (2014) HDTV [1080i]

 
Автор Сообщение

sergej644 ®

Пол:

Стаж: 4 года 11 месяцев

Сообщений: 6041

Откуда: Soviet Union



Награды: Нет

Торрент-статистика

Создавать темы 04-Янв-2015 00:52

[Цитировать]

-Весёлые ребята;) (2014) HDTV [1080i]- Год выпуска: 2014
Производство: Россия / Фонд кино
Жанр: Комедия
Перевод: Не требуется (русский)
Субтитры: Отсутствуют
Режиссер: Алексей Бобров
Продюсер: Валерий Тодоровский, Максим Коропцов, Анастасия Бирюкова
Актеры: Иван Дорн, Катерина Шпица, София Каштанова, Алексей Шевченков, Евгений Тихомиров, Ола Кейру, Сергей Газаров, Татьяна Лютаева, Алена Новицкая, Наталья Щукина
Описание фильма:
Начинающий музыкант Костя Потехин, чтобы завоевать расположение красивой девушки, соглашается участвовать в музыкальном телевизионном конкурсе. Но участвовать нужно только со своей музыкальной группой, которой у него нет. За несколько дней ему предстоит собрать свою группу, найти надежных друзей и встретить настоящую любовь.

Дата мировой премьеры: 28 августа 2014
Дата российской премьеры: 28 августа 2014, «Наше Кино»
Дата выхода DVD релиза: 2 октября 2014, «CD Land»
Продолжительность: 01:32:13
Качество видео: HDTV [1080i]
Видеокодек: MPEG-4 AVC/H.264
Битрейт видео: ~7 116 Кбит/с
Размер кадра: 1920x1080
Аудио: Русский MP2, 2 ch, 256 Кбит/с-

MediaInfo:

General
ID : 1
Complete name : E:\Veselyie.rebyata.2014.HDTV.1080i.ts
Format : MPEG-TS
File size : 4.89 GiB
Duration : 1h 28mn
Overall bit rate : 7 922 Kbps
Video
ID : 2911 (0xB5F)
Menu ID : 1 (0x1)
Format : AVC
Format/Info : Advanced Video Codec
Format profile : [url=mailto:High@L4.0]High@L4.0[/url]
Format settings, CABAC : Yes
Format settings, ReFrames : 4 frames
Duration : 1h 28mn
Bit rate : 7 116 Kbps
Width : 1 920 pixels
Height : 1 080 pixels
Display aspect ratio : 16:9
Frame rate : 25.000 fps
Resolution : 8 bits
Colorimetry : 4:2:0
Scan type : MBAFF
Bits/(Pixel*Frame) : 0.137
Stream size : 4.40 GiB (90%)
Audio
ID : 2912 (0xB60)
Menu ID : 1 (0x1)
Format : MPEG Audio
Format version : Version 1
Format profile : Layer 2
Duration : 1h 28mn
Bit rate mode : Constant
Bit rate : 256 Kbps
Channel(s) : 2 channels
Sampling rate : 48.0 KHz
Stream size : 162 MiB (3%)
Language : Russian
-Скриншоты:
Время раздачи: 24/7 - круглосуточно
Благодарности, а также конструктивное обсуждение раздачи способствует ее долгожительству и вдохновляет автора на создание новых.
[Профиль] [ЛС]
Показать сообщения:    

Текущее время: Сегодня 01:10

Часовой пояс: GMT



Вы не можете начинать темы
Вы не можете отвечать на сообщения
Вы не можете редактировать свои сообщения
Вы не можете удалять свои сообщения
Вы не можете голосовать в опросах
Вы не можете прикреплять файлы к сообщениям
Вы не можете скачивать файлы