(Pop, Retro) Весёлые ребята - 13 лет спустя (2002) [FLAC, (Image+cue), Lossless]

 
Автор Сообщение

sergej644 ®

Пол:

Стаж: 4 года 11 месяцев

Сообщений: 6046

Откуда: Soviet Union



Награды: Нет

Торрент-статистика

Создавать темы 11-Авг-2014 22:47

[Цитировать]

-Весёлые ребята - 13 лет спустя (2002)- Год: 2002
Жанр: Pop, Retro
Продолжительность: 00:40:43
Издатель (лейбл): Квадро Диск
Номер по каталогу: KTL02-419
Страна: Россия
Аудиокодек: FLAC (*.flac)
Тип рипа: image+.cue
Битрейт аудио: lossless
Наличие сканов в содержимом раздачи: да
Треклист:
1. Любовь огромная страна
2. Школьная пора
3. Мамина пластинка
4. Баня
5. Алёшкина любовь
6. Ты ко мне не подходи
7. Напиши мне письмо
8. Когда молчим вдвоём
9. Если б не суббота
10. Люди встртечаются
11. Бродячие артисты

Отчёт ЕАС:

Exact Audio Copy V1.0 beta 2 from 29. April 2011
Отчёт EAC об извлечении, выполненном 27. ноября 2013, 0:05
Весёлые ребята / 13 лет спустя
Дисковод: Optiarc DVD RW AD-7760H   Adapter: 5  ID: 0
Режим чтения                 : Достоверность
Использование точного потока : Да
Отключение кэша аудио        : Да
Использование указателей C2  : Нет
Коррекция смещения при чтении                     : 48
Способность читать области Lead-in и Lead-out     : Нет
Заполнение пропущенных сэмплов тишиной            : Да
Удаление блоков с тишиной в начале и конце        : Нет
При вычислениях CRC использовались нулевые сэмплы : Нет
Интерфейс                                         : Встроенный Win32-интерфейс для Win NT/2000
Выходной формат          : Пользовательский кодировщик
Выбранный битрейт        : 896 kBit/s
Качество                 : Высокий
Добавление ID3-тега      : Нет
Утилита сжатия           : C:\Program Files\Exact Audio Copy\FLAC\FLAC.EXE
Дополнительные параметры : -8 -V -T "ARTIST=%artist%" -T "TITLE=%title%" -T "ALBUM=%albumtitle%" -T "DATE=%year%" -T "TRACKNUMBER=%tracknr%" -T "GENRE=%genre%" -T "COMMENT=%comment%" -T "BAND=%albuminterpret%" -T "COMPOSER=%composer%" %haslyrics%--tag-from-
TOC извлечённого CD
     Трек |   Старт  | Длительность | Начальный сектор | Конечный сектор
    ---------------------------------------------------------------------
       1  |  0:00.00 |    2:44.61   |           0      |      12360
       2  |  2:44.61 |    3:40.04   |       12361      |      28864
       3  |  6:24.65 |    3:17.13   |       28865      |      43652
       4  |  9:42.03 |    3:46.18   |       43653      |      60620
       5  | 13:28.21 |    2:51.35   |       60621      |      73480
       6  | 16:19.56 |    4:34.67   |       73481      |      94097
       7  | 20:54.48 |    3:31.34   |       94098      |     109956
       8  | 24:26.07 |    4:56.59   |      109957      |     132215
       9  | 29:22.66 |    4:35.14   |      132216      |     152854
      10  | 33:58.05 |    2:36.25   |      152855      |     164579
      11  | 36:34.30 |    4:08.48   |      164580      |     183227
Характеристики диапазона извлечения и сообщения об ошибках
Выбранный диапазон
     Имя файла D:\Для торрента\Весёлые ребята\Весёлые ребята - 13 лет спустя.wav
     Пиковый уровень 100.0 %
     Скорость извлечения 1.9 X
     Качество диапазона 100.0 %
     CRC теста 06964C36
     CRC копии 06964C36
     Копирование... OK
Ошибок не произошло
AccurateRip: сводка
Трек  1  отсутствует в базе данных
Трек  2  отсутствует в базе данных
Трек  3  отсутствует в базе данных
Трек  4  отсутствует в базе данных
Трек  5  отсутствует в базе данных
Трек  6  отсутствует в базе данных
Трек  7  отсутствует в базе данных
Трек  8  отсутствует в базе данных
Трек  9  отсутствует в базе данных
Трек 10  отсутствует в базе данных
Трек 11  отсутствует в базе данных
Ни одного трека нет в базе AccurateRip
Конец отчёта
==== Контрольная сумма отчёта BC0FF59CEBC84C3C657BD84016E1B67F9B91469707094925A31E35AB779D9B91 ====

Отчёт auCDtect Task manager:

-----------------------
DON'T MODIFY THIS FILE
-----------------------
PERFORMER: auCDtect Task Manager, ver. 1.5.1RC6 build 1.5.1.7
Copyright (c) 2008-2010 y-soft. All rights reserved
http://y-soft.org
ANALYZER: auCDtect: CD records authenticity detector, version 0.8.2
Copyright (c) 2004 Oleg Berngardt. All rights reserved.
Copyright (c) 2004 Alexander Djourik. All rights reserved.
FILE: Весёлые ребята - 13 лет спустя.flac
  Size: 292119430 Hash: 10D649387BB37AD509C137ED80E088A2 Accuracy: -m0
  Conclusion: CDDA 100%
  Signature: 20444D63B3796F3B4B43E9F165DE7F31AE342ADE
--
[Профиль] [ЛС]
Показать сообщения:    

Текущее время: Сегодня 06:25

Часовой пояс: GMT



Вы не можете начинать темы
Вы не можете отвечать на сообщения
Вы не можете редактировать свои сообщения
Вы не можете удалять свои сообщения
Вы не можете голосовать в опросах
Вы не можете прикреплять файлы к сообщениям
Вы не можете скачивать файлы