Весёлая ферма / KuToppen (2018) WEB-DLRip | iTunes

 
Author Message

BOSS ®

Gender:

Longevity: 5 years 1 month

Posts: 14195

Location: ODESSA



: 22 ()

Mega Releaser 3 (1) Mega Seeder 1 (1) Top Releaser 4 (1)
Торрент-статистика

Post 15-Oct-2019 19:14

[Quote]

Весёлая ферма / KuToppen
Страна: Норвегия
Производство: Qvisten Animation, Баритон
Год выпуска: 2018
Жанр: мультфильм, семейный
Продолжительность: 01:06:21
Режиссер: Лизе И. Осволл
Роли озвучивали: Марит Андреассен, Ода Осволл Аватсмарк, Матс Элдоэн, Хенриетта Фэй-Шолль, Шарлотта Фрогнер, Стиг Дж. Хаген
Описание: Корова по имени Клара живет в городе и мечтает стать большой звездой. На летние каникулы она приезжает погостить к родителям на ферму. Там она решает прославить ферму став лучшим кулинаром. Вместе с друзьями, местными жителями: бычком — рэпером Гутом, курицей Чикколиной и другими она приступает к работе, хотя кое-кто, в этом, ей хочет помешать...

Перевод: Профессиональный (полное дублирование) | iTunes
Субтитры: нет-Качество: WEB-DLRip
Формат: AVI
Видео кодек: XviD
Аудио кодек: АС3
Видео: 720x384 (1.85:1), 24.000 fps, XviD build 73 ~1 946 kbps avg
Аудио: 48.0 kHz, AC3 Dolby Digital, 3/2 (L,C,R,l,r) + LFE ch, ~384 kbps
Дата премьеры (мир): 19 октября 2018
Дата премьеры (РФ): 23 мая 2019, «Ten Letters»

Релиз от: порошков

Media Info

General
Формат : AVI
Формат/Информация : Audio Video Interleave
Размер файла : 1,08 Гбайт
Продолжительность : 1 ч. 6 м.
Общий поток : 2339 Кбит/сек
Название фильма : Весёлая ферма_2018_WEB-DLRip
Программа кодирования : VirtualDubMod 1.5.10.3 | (build 2550/release)
Авторское право : порошков
Видео
Идентификатор : 0
Формат : MPEG-4 Visual
Профиль формата : Advanced Simple@L5
Настройки формата : BVOP1 / Custom Matrix
Параметр BVOP формата : 1
Параметр QPel формата : Нет
Параметр GMC формата : Без точки перехода
Параметр матрицы формата : Выборочная
Идентификатор кодека : XVID
Идентификатор кодека/Подсказка : XviD
Продолжительность : 1 ч. 6 м.
Битрейт : 1946 Кбит/сек
Ширина : 720 пикселей
Высота : 384 пикселя
Соотношение сторон : 1,85:1
Частота кадров : 24,000 кадра/сек
Цветовое пространство : YUV
Субдискретизация насыщенности : 4:2:0
Битовая глубина : 8 бит
Тип развёртки : Прогрессивная
Метод сжатия : С потерями
Бит/(Пиксели*Кадры) : 0.293
Размер потока : 923 Мбайт (83%)
Библиотека кодирования : XviD 73
Аудио
Идентификатор : 1
Формат : AC-3
Формат/Информация : Audio Coding 3
Коммерческое название : Dolby Digital
Идентификатор кодека : 2000
Продолжительность : 1 ч. 6 м.
Вид битрейта : Постоянный
Битрейт : 384 Кбит/сек
Каналы : 6 каналов
ChannelLayout : L R C LFE Ls Rs
Частота : 48,0 КГц
Частота кадров : 31,250 кадров/сек (1536 SPF)
Метод сжатия : С потерями
Размер потока : 182 Мбайт (16%)
Выравнивание : Разделение по промежуткам
Продолжительность промежутка : 42 мс. (1,00 видеокадр)
Время предзагрузки промежутка : 500 мс.

Скриншоты

[Profile] [PM]
Display posts from previous:    

The time now is: Today 06:32

All times are GMT



You cannot post new topics in this forum
You cannot reply to topics in this forum
You cannot edit your posts in this forum
You cannot delete your posts in this forum
You cannot vote in polls in this forum
You cannot attach files in this forum
You cannot download files in this forum