Весна на Заречной улице (Феликс Миронер и Марлен Хуциев) [1956, СССР, мелодрама, Blu ray > DVD9 (Custom)] Sub Rus,Eng + Original Rus(DTS 5.1;AC3 5.1;AC3 1.0)

 
Автор Сообщение

TorrentFilm ®

Пол:

Стаж: 2 года

Сообщений: 7741



Награды: Нет

Торрент-статистика

Создавать темы 01-Янв-2016 00:16

[Цитировать]

Весна на Заречной улице
Страна: СССР
Студия: Одесская киностудия художественных фильмов
Жанр: мелодрама
Год выпуска: 1956
Продолжительность: 01:30:09
Перевод: Не требуется
Cубтитры: русские,английские.
Оригинальная аудиодорожка: русский
Режиссер: Феликс Миронер и Марлен Хуциев
В ролях: Нина Иванова, Николай Рыбников, Владимир Гуляев, Валентина Пугачева, Геннадий Юхтин, Римма Шорохова, Николай Ключнев, Мария Гаврилко, Юрий Белов, Валентин Брылеев.
Описание: В рабочий посёлок приезжает выпускница педагогического института Татьяна Сергеевна Левченко (Нина Иванова), чтобы преподавать русский язык и литературу в вечерней школе рабочей молодежи. В её классе оказывается лихой и весёлый парень Саша Савченко (Николай Рыбников), с которым она познакомилась чуть раньше, по дороге с вокзала. Саша — известный человек на заводе, он — сталевар, ударник труда. С начала фильма возникает несколько любовных треугольников, центральной темой которых становится любовь Саши к его учительнице, не сразу отвечающей на его чувство. В фильме, показывающем быт, традиции, поведение послевоенной, выросшей без отцов молодёжи, звучит известная песня «На Заречной улице» (стихи Алексея Фатьянова, музыка Бориса Мокроусова)в исполнении Н.Рыбникова. Кроме этой песни в фильме есть и другая популярная музыка: фокстрот Артура Полонского «Цветущий май» и «Школьный вальс» в исполнении Владимира Бунчикова (композитор Исаак Дунаевский, автор слов Михаил Матусовский).
Доп. информация: Полная реставрация изображения и звука. Исходные киноматериалы подготовлены Госфильмофондом России. Покадровая цифровая реставрация изображения, ремастеринг звука и авторинг проведены объединением «Крупный план».

История создания фильма

Закончив в 1952 году институт кинематографии, Марлен Хуциев становится режиссёром на Одесской киностудии. Работая помощником режиссёра в различных киногруппах, он пишет сценарий для своей первой большой художественной картины. Начальный вариант сценария не был принят к постановке и М. Хуциеву пришлось дорабатывать его вместе с Ф. Миронером, соавтором по дипломному фильму. Снимать фильм начали с 1953 года, а премьера фильма состоялась 26 ноября 1956 г. Фильмом «Весна на Заречной улице» М. Хуциев открыл дорогу новому поколению актёров: в картине дебютировали выпускники ВГИКа Ю. Белов, Н. Рыбников, Г. Юхтин. Роль учительницы Татьяны Сергеевны сыграла непрофессиональная актриса Нина Иванова.
Бо́льшая часть киносъёмок прошла в Запорожье. Некоторые сцены снимались в Одессе. В Запорожье съёмки проводились на заводах Запорожсталь, Днепроспецсталь. Кроме заводских сцен съёмочная группа работала также в 47-й и в 4-й средних школах рабочей молодежи на Павло-Кичкасе, в парке «Дубовая роща», райвоенкомате, Дворце культуры алюминиевого комбината (в советское время — Дворец культуры им. С. М. Кирова).
Николаю Рыбникову помогал вживаться в образ 23-летний Григорий Пометун, впоследствии заслуженный сталевар Украины.
Критика отметила высокий уровень режиссуры фильма. Внимание привлекли и съёмки оператора Петра Тодоровского, умело чередовавшего общие и индивидуальные планы. Зрителями была особенно отмечена песня из кинофильма.
Картина означала иной поворот в традиционной для советского кинематографа рабочей теме. В конце 1956 г. фильм стал лидером проката и собрал более 30 миллионов зрителей, уступив лишь итальянской мелодраме «Утраченные грёзы». Фильм был отмечен бронзовой медалью Международного кинофестиваля в Москве 1957 года (в рамках Всемирного фестиваля молодежи и студентов).

После фильма

* В фильме «Лёгкая жизнь» (1964) Нина Иванова снялась в эпизодической роли, в сцене встречи выпускников педагогического института. Преподаватель вызывает Таню Левченко, на что она отвечает: «А я не Левченко, я — Савченко». Фамилия главного героя фильма «Весна на Заречной улице» — Савченко.
* Песня «На Заречной улице» (стихи Алексея Фатьянова, музыка Бориса Мокроусова), прозвучавшая в фильме, — одна из самых популярных советских песен из кинофильмов. Соло на гитаре исполняет Пётр Тодоровский, работавший оператором на картине.
* В Запорожье и Одессе после выхода фильма появились улицы Заречные.
* В Запорожье выходит газета «Улица Заречная».
* В 2001 г. Юрием Сирманом была снята новая версия фильма (ремейк) — «Весна на Заречной улице — 2».
* В 2000-х в Запорожье, на бульваре Шевченко, напротив городского совета были установлены городские часы, играющие мелодию из фильма «Весна на Заречной улице».
* В 2006 г. исполнилось 50 лет со времени выхода на экран фильма. В одной из газетных публикаций этот юбилей определили как тихий, но замеченный многими, а также отметили, что когда в честь круглой даты каналы показали старую советскую ленту, она для зрителей оказалась важнее новых блокбастеров.
* К 50-ти летию фильма телеканалом ТВ-Центр был снят документальный фильм «Весна на Заречной улице. Неоконченный рассказ».
* Фильм был показан в 2006 г. на XXVIII Московском кинофестивале в рамках ретроспективного показа «Лучшие советские фильмы эпохи оттепели».
* В 2006 г. в Запорожском драматическом театре был поставлен мюзикл «Любовь на Заречной улице». Автор инсценизации и режиссёр-постановщик — Виталий Денисенко. В 2010 г. спектакль был поставлен на сцене Днепродзержинского музыкального-драматического театра.
* 11 декабря 2010 года компания «Крупный план» представила публике цветную версию фильма в кинозале Одесской киностудии. 17 декабря премьера этой версии на украинском телевидении состоялась на телеканале СТБ, а 7 марта 2011 г. российская премьера состоялась на Первом канале. Колоризация фильма была осуществлена при непосредственном участии Марлена Хуциева.
* В 2013 году в Запорожье прошёл гала-концерт под названием «Весна на Заречной улице» посвящённый празднику труда.
Меню: на русском / частично анимированное / озвученное.
Сэмпл: http://multi-up.com/897537
Тип релиза: DVD9 (Custom)
Контейнер: DVD-Video
Видео: MPEG Video,PAL,720*576,VBR,4:3,8450 Кбит/сек,25 Кбит/сек
Аудио: Русский DTS, 6 каналов, 48,0 КГц, 768 Кбит/сек
Аудио 2: Русский AC3,6 каналов, 48,0 КГц, 448 Кбит/сек
Аудио 3: Русский AC3,1 канал, 48,0 КГц, 192 Кбит/сек
Формат субтитров: prerendered (DVD/IDX+SUB)
Источник- Blu-Ray. БОЛЬШОЕ СПАСИБО ЗА НЕГО yuretskiy.
MediaInfoОбщее
Полное имя : F:\Сохраненные фильмы\Мои_раздачи_BD_DVD\Весна на Заречной улице Blu ray_DVD9\VIDEO_TS\VIDEO_TS.BUP
Формат : DVD Video
Профиль формата : Menu
Размер файла : 12,0 Кбайт
Режим общего битрейта : Переменный
Видео
Идентификатор : 224 (0xE0)
Формат : MPEG Video
Версия формата : Version 2
Вид битрейта : Переменный
Ширина : 720 пикселей
Высота : 576 пикселей
Соотношение сторон : 4:3
Частота кадров : 25,000 кадров/сек
Стандарт вещания : PAL
Метод сжатия : С потерями
Общее
Полное имя : F:\Сохраненные фильмы\Мои_раздачи_BD_DVD\Весна на Заречной улице Blu ray_DVD9\VIDEO_TS\VIDEO_TS.IFO
Формат : DVD Video
Профиль формата : Menu
Размер файла : 12,0 Кбайт
Режим общего битрейта : Переменный
Видео
Идентификатор : 224 (0xE0)
Формат : MPEG Video
Версия формата : Version 2
Вид битрейта : Переменный
Ширина : 720 пикселей
Высота : 576 пикселей
Соотношение сторон : 4:3
Частота кадров : 25,000 кадров/сек
Стандарт вещания : PAL
Метод сжатия : С потерями
Общее
Полное имя : F:\Сохраненные фильмы\Мои_раздачи_BD_DVD\Весна на Заречной улице Blu ray_DVD9\VIDEO_TS\VIDEO_TS.VOB
Формат : MPEG-PS
Размер файла : 48,0 Кбайт
Продолжительность : 40 мс.
Режим общего битрейта : Переменный
Общий поток : 9830 Кбит/сек
Видео
Идентификатор : 224 (0xE0)
Формат : MPEG Video
Версия формата : Version 2
Профиль формата : Main@Main
Параметр BVOP формата : Нет
Параметр матрицы формата : По умолчанию
Продолжительность : 40 мс.
Вид битрейта : Переменный
Максимальный битрейт : 9000 Кбит/сек
Ширина : 720 пикселей
Высота : 576 пикселей
Соотношение сторон : 4:3
Частота кадров : 25,000 кадров/сек
Стандарт вещания : PAL
Цветовое пространство : YUV
Субдискретизация насыщенности : 4:2:0
Битовая глубина : 8 бит
Тип развёртки : Прогрессивная
Порядок развёртки : Верхнее поле первое
Метод сжатия : С потерями
Основные цвета : BT.470-2 System B, BT.470-2 System G
Характеристики трансфера : BT.470-2 System B, BT.470-2 System G
Коэффициенты матрицы : BT.470-2 System B, BT.470-2 System G
Меню
Общее
Полное имя : F:\Сохраненные фильмы\Мои_раздачи_BD_DVD\Весна на Заречной улице Blu ray_DVD9\VIDEO_TS\VTS_01_0.BUP
Формат : DVD Video
Профиль формата : Program
Размер файла : 58,0 Кбайт
Продолжительность : 1 ч. 30 м.
Режим общего битрейта : Переменный
Общий поток : 88 бит/сек
Видео
Идентификатор : 224 (0xE0)
Формат : MPEG Video
Версия формата : Version 2
Продолжительность : 1 ч. 30 м.
Вид битрейта : Переменный
Ширина : 720 пикселей
Высота : 576 пикселей
Соотношение сторон : 4:3
Частота кадров : 25,000 кадров/сек
Стандарт вещания : PAL
Метод сжатия : С потерями
Аудио #1
Идентификатор : 136 (0x88)
Формат : DTS
Формат/Информация : Digital Theater Systems
Продолжительность : 1 ч. 30 м.
Каналы : 6 каналов
Частота : 48,0 КГц
Метод сжатия : С потерями
Язык : Russian
Аудио #2
Идентификатор : 129 (0x81)
Формат : AC-3
Формат/Информация : Audio Coding 3
Продолжительность : 1 ч. 30 м.
Каналы : 6 каналов
Частота : 48,0 КГц
Метод сжатия : С потерями
Язык : Russian
Аудио #3
Идентификатор : 130 (0x82)
Формат : AC-3
Формат/Информация : Audio Coding 3
Продолжительность : 1 ч. 30 м.
Каналы : 1 канал
Частота : 48,0 КГц
Метод сжатия : С потерями
Язык : Russian
Текст #1
Идентификатор : 32 (0x20)
Формат : RLE
Формат/Информация : Run-length encoding
Битовая глубина : 2 бит
Язык : Russian
Текст #2
Идентификатор : 33 (0x21)
Формат : RLE
Формат/Информация : Run-length encoding
Битовая глубина : 2 бит
Язык : English
Меню
Продолжительность : 1 ч. 30 м.
00:00:00.000 : Chapter 1
00:07:29.600 : Chapter 2
00:15:28.760 : Chapter 3
00:22:58.160 : Chapter 4
00:30:11.040 : Chapter 5
00:37:36.240 : Chapter 6
00:45:09.480 : Chapter 7
00:54:48.000 : Chapter 8
01:03:29.160 : Chapter 9
01:07:59.240 : Chapter 10
01:15:13.400 : Chapter 11
01:22:40.400 : Chapter 12
List (Audio) : 0 / 1 / 2
List (Subtitles 4/3) : 0 / 1
List (Subtitles Wide) : 0 / 1
List (Subtitles Letterbox) : 0 / 1
List (Subtitles Pan&Scan) : 0 / 1
Общее
Полное имя : F:\Сохраненные фильмы\Мои_раздачи_BD_DVD\Весна на Заречной улице Blu ray_DVD9\VIDEO_TS\VTS_01_0.IFO
Формат : DVD Video
Профиль формата : Program
Размер файла : 58,0 Кбайт
Продолжительность : 1 ч. 30 м.
Режим общего битрейта : Переменный
Общий поток : 88 бит/сек
Видео
Идентификатор : 224 (0xE0)
Формат : MPEG Video
Версия формата : Version 2
Продолжительность : 1 ч. 30 м.
Вид битрейта : Переменный
Ширина : 720 пикселей
Высота : 576 пикселей
Соотношение сторон : 4:3
Частота кадров : 25,000 кадров/сек
Стандарт вещания : PAL
Метод сжатия : С потерями
Аудио #1
Идентификатор : 136 (0x88)
Формат : DTS
Формат/Информация : Digital Theater Systems
Продолжительность : 1 ч. 30 м.
Каналы : 6 каналов
Частота : 48,0 КГц
Метод сжатия : С потерями
Язык : Russian
Аудио #2
Идентификатор : 129 (0x81)
Формат : AC-3
Формат/Информация : Audio Coding 3
Продолжительность : 1 ч. 30 м.
Каналы : 6 каналов
Частота : 48,0 КГц
Метод сжатия : С потерями
Язык : Russian
Аудио #3
Идентификатор : 130 (0x82)
Формат : AC-3
Формат/Информация : Audio Coding 3
Продолжительность : 1 ч. 30 м.
Каналы : 1 канал
Частота : 48,0 КГц
Метод сжатия : С потерями
Язык : Russian
Текст #1
Идентификатор : 32 (0x20)
Формат : RLE
Формат/Информация : Run-length encoding
Битовая глубина : 2 бит
Язык : Russian
Текст #2
Идентификатор : 33 (0x21)
Формат : RLE
Формат/Информация : Run-length encoding
Битовая глубина : 2 бит
Язык : English
Меню
Продолжительность : 1 ч. 30 м.
00:00:00.000 : Chapter 1
00:07:29.600 : Chapter 2
00:15:28.760 : Chapter 3
00:22:58.160 : Chapter 4
00:30:11.040 : Chapter 5
00:37:36.240 : Chapter 6
00:45:09.480 : Chapter 7
00:54:48.000 : Chapter 8
01:03:29.160 : Chapter 9
01:07:59.240 : Chapter 10
01:15:13.400 : Chapter 11
01:22:40.400 : Chapter 12
List (Audio) : 0 / 1 / 2
List (Subtitles 4/3) : 0 / 1
List (Subtitles Wide) : 0 / 1
List (Subtitles Letterbox) : 0 / 1
List (Subtitles Pan&Scan) : 0 / 1
Общее
Полное имя : F:\Сохраненные фильмы\Мои_раздачи_BD_DVD\Весна на Заречной улице Blu ray_DVD9\VIDEO_TS\VTS_01_0.VOB
Формат : MPEG-PS
Размер файла : 61,2 Мбайт
Продолжительность : 49 с.
Режим общего битрейта : Переменный
Общий поток : 10,5 Мбит/сек
Видео
Идентификатор : 224 (0xE0)
Формат : MPEG Video
Версия формата : Version 2
Профиль формата : Main@Main
Параметр BVOP формата : Да
Параметр матрицы формата : По умолчанию
Параметр GOP формата : M=3, N=12
Продолжительность : 29 с.
Вид битрейта : Переменный
Битрейт : 9993 Кбит/сек
Максимальный битрейт : 6500 Кбит/сек
Ширина : 720 пикселей
Высота : 576 пикселей
Соотношение сторон : 4:3
Частота кадров : 25,000 кадров/сек
Стандарт вещания : PAL
Цветовое пространство : YUV
Субдискретизация насыщенности : 4:2:0
Битовая глубина : 8 бит
Тип развёртки : Прогрессивная
Метод сжатия : С потерями
Бит/(Пиксели*Кадры) : 0.964
Размер потока : 35,1 Мбайт (57%)
Основные цвета : BT.470-2 System B, BT.470-2 System G
Характеристики трансфера : BT.470-2 System B, BT.470-2 System G
Коэффициенты матрицы : BT.470-2 System B, BT.470-2 System G
Аудио
Идентификатор : 189 (0xBD)-128 (0x80)
Формат : AC-3
Формат/Информация : Audio Coding 3
Расширение режима : CM (complete main)
Параметр Endianness формата : Big
Режим смешивания : DVD-Video
Продолжительность : 49 с.
Вид битрейта : Постоянный
Битрейт : 256 Кбит/сек
Каналы : 2 канала
Расположение каналов : Front: L R
Частота : 48,0 КГц
Битовая глубина : 16 бит
Метод сжатия : С потерями
Размер потока : 1,50 Мбайт (2%)
Текст
Идентификатор : 189 (0xBD)-32 (0x20)
Формат : RLE
Формат/Информация : Run-length encoding
Режим смешивания : DVD-Video
Продолжительность : 256 мс.
Меню
Общее
Полное имя : F:\Сохраненные фильмы\Мои_раздачи_BD_DVD\Весна на Заречной улице Blu ray_DVD9\VIDEO_TS\VTS_01_1.VOB
Формат : MPEG-PS
Размер файла : 1000 Мбайт
Продолжительность : 14 м.
Режим общего битрейта : Переменный
Общий поток : 9969 Кбит/сек
Видео
Идентификатор : 224 (0xE0)
Формат : MPEG Video
Версия формата : Version 2
Профиль формата : Main@Main
Параметр BVOP формата : Да
Параметр матрицы формата : Выборочная
Продолжительность : 14 м.
Вид битрейта : Переменный
Битрейт : 8450 Кбит/сек
Ширина : 720 пикселей
Высота : 576 пикселей
Соотношение сторон : 4:3
Частота кадров : 25,000 кадров/сек
Стандарт вещания : PAL
Цветовое пространство : YUV
Субдискретизация насыщенности : 4:2:0
Битовая глубина : 8 бит
Тип развёртки : Чересстрочная
Порядок развёртки : Верхнее поле первое
Метод сжатия : С потерями
Бит/(Пиксели*Кадры) : 0.815
Размер потока : 841 Мбайт (84%)
Аудио #1
Идентификатор : 189 (0xBD)-129 (0x81)
Формат : AC-3
Формат/Информация : Audio Coding 3
Расширение режима : CM (complete main)
Параметр Endianness формата : Big
Режим смешивания : DVD-Video
Продолжительность : 14 м.
Вид битрейта : Постоянный
Битрейт : 448 Кбит/сек
Каналы : 6 каналов
Расположение каналов : Front: L C R, Side: L R, LFE
Частота : 48,0 КГц
Битовая глубина : 16 бит
Метод сжатия : С потерями
Размер потока : 44,9 Мбайт (4%)
Аудио #2
Идентификатор : 189 (0xBD)-130 (0x82)
Формат : AC-3
Формат/Информация : Audio Coding 3
Расширение режима : CM (complete main)
Параметр Endianness формата : Big
Режим смешивания : DVD-Video
Продолжительность : 14 м.
Вид битрейта : Постоянный
Битрейт : 192 Кбит/сек
Каналы : 1 канал
Расположение каналов : Front: C
Частота : 48,0 КГц
Битовая глубина : 16 бит
Метод сжатия : С потерями
Размер потока : 19,3 Мбайт (2%)
Аудио #3
Идентификатор : 189 (0xBD)-136 (0x88)
Формат : DTS
Формат/Информация : Digital Theater Systems
Режим смешивания : DVD-Video
Продолжительность : 14 м.
Вид битрейта : Постоянный
Битрейт : 755 Кбит/сек
Каналы : 6 каналов
Расположение каналов : Front: L C R, Side: L R, LFE
Частота : 48,0 КГц
Битовая глубина : 24 бит
Метод сжатия : С потерями
Размер потока : 75,7 Мбайт (8%)
Текст #1
Идентификатор : 189 (0xBD)-32 (0x20)
Формат : RLE
Формат/Информация : Run-length encoding
Режим смешивания : DVD-Video
Текст #2
Идентификатор : 189 (0xBD)-33 (0x21)
Формат : RLE
Формат/Информация : Run-length encoding
Режим смешивания : DVD-Video
Меню
Общее
Полное имя : F:\Сохраненные фильмы\Мои_раздачи_BD_DVD\Весна на Заречной улице Blu ray_DVD9\VIDEO_TS\VTS_01_2.VOB
Формат : MPEG-PS
Размер файла : 1000 Мбайт
Продолжительность : 14 м.
Режим общего битрейта : Переменный
Общий поток : 9901 Кбит/сек
Видео
Идентификатор : 224 (0xE0)
Формат : MPEG Video
Версия формата : Version 2
Профиль формата : Main@Main
Параметр BVOP формата : Да
Параметр матрицы формата : Выборочная
Параметр GOP формата : M=3, N=15
Продолжительность : 14 м.
Вид битрейта : Переменный
Битрейт : 8309 Кбит/сек
Максимальный битрейт : 8450 Кбит/сек
Ширина : 720 пикселей
Высота : 576 пикселей
Соотношение сторон : 4:3
Частота кадров : 25,000 кадров/сек
Стандарт вещания : PAL
Цветовое пространство : YUV
Субдискретизация насыщенности : 4:2:0
Битовая глубина : 8 бит
Тип развёртки : Чересстрочная
Порядок развёртки : Верхнее поле первое
Метод сжатия : С потерями
Бит/(Пиксели*Кадры) : 0.801
Размер потока : 839 Мбайт (84%)
Аудио #1
Идентификатор : 189 (0xBD)-129 (0x81)
Формат : AC-3
Формат/Информация : Audio Coding 3
Расширение режима : CM (complete main)
Параметр Endianness формата : Big
Режим смешивания : DVD-Video
Продолжительность : 14 м.
Вид битрейта : Постоянный
Битрейт : 448 Кбит/сек
Каналы : 6 каналов
Расположение каналов : Front: L C R, Side: L R, LFE
Частота : 48,0 КГц
Битовая глубина : 16 бит
Метод сжатия : С потерями
Задержка видео : -304 мс.
Размер потока : 45,2 Мбайт (5%)
Аудио #2
Идентификатор : 189 (0xBD)-130 (0x82)
Формат : AC-3
Формат/Информация : Audio Coding 3
Расширение режима : CM (complete main)
Параметр Endianness формата : Big
Режим смешивания : DVD-Video
Продолжительность : 14 м.
Вид битрейта : Постоянный
Битрейт : 192 Кбит/сек
Каналы : 1 канал
Расположение каналов : Front: C
Частота : 48,0 КГц
Битовая глубина : 16 бит
Метод сжатия : С потерями
Задержка видео : -240 мс.
Размер потока : 19,4 Мбайт (2%)
Аудио #3
Идентификатор : 189 (0xBD)-136 (0x88)
Формат : DTS
Формат/Информация : Digital Theater Systems
Режим смешивания : DVD-Video
Продолжительность : 14 м.
Вид битрейта : Постоянный
Битрейт : 755 Кбит/сек
Каналы : 6 каналов
Расположение каналов : Front: L C R, Side: L R, LFE
Частота : 48,0 КГц
Битовая глубина : 24 бит
Метод сжатия : С потерями
Задержка видео : -304 мс.
Размер потока : 76,2 Мбайт (8%)
Текст #1
Идентификатор : 189 (0xBD)-33 (0x21)
Формат : RLE
Формат/Информация : Run-length encoding
Режим смешивания : DVD-Video
Продолжительность : 14 м.
Задержка видео : 3 с. 400 мс.
Текст #2
Идентификатор : 189 (0xBD)-32 (0x20)
Формат : RLE
Формат/Информация : Run-length encoding
Режим смешивания : DVD-Video
Меню
Общее
Полное имя : F:\Сохраненные фильмы\Мои_раздачи_BD_DVD\Весна на Заречной улице Blu ray_DVD9\VIDEO_TS\VTS_01_3.VOB
Формат : MPEG-PS
Размер файла : 1000 Мбайт
Продолжительность : 14 м.
Режим общего битрейта : Переменный
Общий поток : 9894 Кбит/сек
Видео
Идентификатор : 224 (0xE0)
Формат : MPEG Video
Версия формата : Version 2
Профиль формата : Main@Main
Параметр BVOP формата : Да
Параметр матрицы формата : Выборочная
Параметр GOP формата : M=3, N=15
Продолжительность : 14 м.
Вид битрейта : Переменный
Битрейт : 8302 Кбит/сек
Максимальный битрейт : 8450 Кбит/сек
Ширина : 720 пикселей
Высота : 576 пикселей
Соотношение сторон : 4:3
Частота кадров : 25,000 кадров/сек
Стандарт вещания : PAL
Цветовое пространство : YUV
Субдискретизация насыщенности : 4:2:0
Битовая глубина : 8 бит
Тип развёртки : Чересстрочная
Порядок развёртки : Верхнее поле первое
Метод сжатия : С потерями
Бит/(Пиксели*Кадры) : 0.801
Размер потока : 839 Мбайт (84%)
Аудио #1
Идентификатор : 189 (0xBD)-129 (0x81)
Формат : AC-3
Формат/Информация : Audio Coding 3
Расширение режима : CM (complete main)
Параметр Endianness формата : Big
Режим смешивания : DVD-Video
Продолжительность : 14 м.
Вид битрейта : Постоянный
Битрейт : 448 Кбит/сек
Каналы : 6 каналов
Расположение каналов : Front: L C R, Side: L R, LFE
Частота : 48,0 КГц
Битовая глубина : 16 бит
Метод сжатия : С потерями
Задержка видео : -304 мс.
Размер потока : 45,3 Мбайт (5%)
Аудио #2
Идентификатор : 189 (0xBD)-130 (0x82)
Формат : AC-3
Формат/Информация : Audio Coding 3
Расширение режима : CM (complete main)
Параметр Endianness формата : Big
Режим смешивания : DVD-Video
Продолжительность : 14 м.
Вид битрейта : Постоянный
Битрейт : 192 Кбит/сек
Каналы : 1 канал
Расположение каналов : Front: C
Частота : 48,0 КГц
Битовая глубина : 16 бит
Метод сжатия : С потерями
Задержка видео : -208 мс.
Размер потока : 19,4 Мбайт (2%)
Аудио #3
Идентификатор : 189 (0xBD)-136 (0x88)
Формат : DTS
Формат/Информация : Digital Theater Systems
Режим смешивания : DVD-Video
Продолжительность : 14 м.
Вид битрейта : Постоянный
Битрейт : 755 Кбит/сек
Каналы : 6 каналов
Расположение каналов : Front: L C R, Side: L R, LFE
Частота : 48,0 КГц
Битовая глубина : 24 бит
Метод сжатия : С потерями
Задержка видео : -315 мс.
Размер потока : 76,3 Мбайт (8%)
Текст #1
Идентификатор : 189 (0xBD)-32 (0x20)
Формат : RLE
Формат/Информация : Run-length encoding
Режим смешивания : DVD-Video
Продолжительность : 14 м.
Задержка видео : 3 с. 80 мс.
Текст #2
Идентификатор : 189 (0xBD)-33 (0x21)
Формат : RLE
Формат/Информация : Run-length encoding
Режим смешивания : DVD-Video
Продолжительность : 14 м.
Задержка видео : 1 с. 960 мс.
Меню
Общее
Полное имя : F:\Сохраненные фильмы\Мои_раздачи_BD_DVD\Весна на Заречной улице Blu ray_DVD9\VIDEO_TS\VTS_01_4.VOB
Формат : MPEG-PS
Размер файла : 1000 Мбайт
Продолжительность : 14 м.
Режим общего битрейта : Переменный
Общий поток : 9946 Кбит/сек
Видео
Идентификатор : 224 (0xE0)
Формат : MPEG Video
Версия формата : Version 2
Профиль формата : Main@Main
Параметр BVOP формата : Да
Параметр матрицы формата : Выборочная
Параметр GOP формата : M=3, N=15
Продолжительность : 14 м.
Вид битрейта : Переменный
Битрейт : 8354 Кбит/сек
Максимальный битрейт : 8450 Кбит/сек
Ширина : 720 пикселей
Высота : 576 пикселей
Соотношение сторон : 4:3
Частота кадров : 25,000 кадров/сек
Стандарт вещания : PAL
Цветовое пространство : YUV
Субдискретизация насыщенности : 4:2:0
Битовая глубина : 8 бит
Тип развёртки : Чересстрочная
Порядок развёртки : Верхнее поле первое
Метод сжатия : С потерями
Бит/(Пиксели*Кадры) : 0.806
Размер потока : 840 Мбайт (84%)
Аудио #1
Идентификатор : 189 (0xBD)-129 (0x81)
Формат : AC-3
Формат/Информация : Audio Coding 3
Расширение режима : CM (complete main)
Параметр Endianness формата : Big
Режим смешивания : DVD-Video
Продолжительность : 14 м.
Вид битрейта : Постоянный
Битрейт : 448 Кбит/сек
Каналы : 6 каналов
Расположение каналов : Front: L C R, Side: L R, LFE
Частота : 48,0 КГц
Битовая глубина : 16 бит
Метод сжатия : С потерями
Задержка видео : -264 мс.
Размер потока : 45,0 Мбайт (5%)
Аудио #2
Идентификатор : 189 (0xBD)-130 (0x82)
Формат : AC-3
Формат/Информация : Audio Coding 3
Расширение режима : CM (complete main)
Параметр Endianness формата : Big
Режим смешивания : DVD-Video
Продолжительность : 14 м.
Вид битрейта : Постоянный
Битрейт : 192 Кбит/сек
Каналы : 1 канал
Расположение каналов : Front: C
Частота : 48,0 КГц
Битовая глубина : 16 бит
Метод сжатия : С потерями
Задержка видео : -264 мс.
Размер потока : 19,3 Мбайт (2%)
Аудио #3
Идентификатор : 189 (0xBD)-136 (0x88)
Формат : DTS
Формат/Информация : Digital Theater Systems
Режим смешивания : DVD-Video
Продолжительность : 14 м.
Вид битрейта : Постоянный
Битрейт : 755 Кбит/сек
Каналы : 6 каналов
Расположение каналов : Front: L C R, Side: L R, LFE
Частота : 48,0 КГц
Битовая глубина : 24 бит
Метод сжатия : С потерями
Задержка видео : -317 мс.
Размер потока : 75,9 Мбайт (8%)
Меню
Общее
Полное имя : F:\Сохраненные фильмы\Мои_раздачи_BD_DVD\Весна на Заречной улице Blu ray_DVD9\VIDEO_TS\VTS_01_5.VOB
Формат : MPEG-PS
Размер файла : 1000 Мбайт
Продолжительность : 14 м.
Режим общего битрейта : Переменный
Общий поток : 9854 Кбит/сек
Видео
Идентификатор : 224 (0xE0)
Формат : MPEG Video
Версия формата : Version 2
Профиль формата : Main@Main
Параметр BVOP формата : Да
Параметр матрицы формата : Выборочная
Параметр GOP формата : M=3, N=15
Продолжительность : 14 м.
Вид битрейта : Переменный
Битрейт : 8263 Кбит/сек
Максимальный битрейт : 8450 Кбит/сек
Ширина : 720 пикселей
Высота : 576 пикселей
Соотношение сторон : 4:3
Частота кадров : 25,000 кадров/сек
Стандарт вещания : PAL
Цветовое пространство : YUV
Субдискретизация насыщенности : 4:2:0
Битовая глубина : 8 бит
Тип развёртки : Чересстрочная
Порядок развёртки : Верхнее поле первое
Метод сжатия : С потерями
Бит/(Пиксели*Кадры) : 0.797
Размер потока : 838 Мбайт (84%)
Аудио #1
Идентификатор : 189 (0xBD)-129 (0x81)
Формат : AC-3
Формат/Информация : Audio Coding 3
Расширение режима : CM (complete main)
Параметр Endianness формата : Big
Режим смешивания : DVD-Video
Продолжительность : 14 м.
Вид битрейта : Постоянный
Битрейт : 448 Кбит/сек
Каналы : 6 каналов
Расположение каналов : Front: L C R, Side: L R, LFE
Частота : 48,0 КГц
Битовая глубина : 16 бит
Метод сжатия : С потерями
Задержка видео : -296 мс.
Размер потока : 45,5 Мбайт (5%)
Аудио #2
Идентификатор : 189 (0xBD)-130 (0x82)
Формат : AC-3
Формат/Информация : Audio Coding 3
Расширение режима : CM (complete main)
Параметр Endianness формата : Big
Режим смешивания : DVD-Video
Продолжительность : 14 м.
Вид битрейта : Постоянный
Битрейт : 192 Кбит/сек
Каналы : 1 канал
Расположение каналов : Front: C
Частота : 48,0 КГц
Битовая глубина : 16 бит
Метод сжатия : С потерями
Задержка видео : -264 мс.
Размер потока : 19,5 Мбайт (2%)
Аудио #3
Идентификатор : 189 (0xBD)-136 (0x88)
Формат : DTS
Формат/Информация : Digital Theater Systems
Режим смешивания : DVD-Video
Продолжительность : 14 м.
Вид битрейта : Постоянный
Битрейт : 755 Кбит/сек
Каналы : 6 каналов
Расположение каналов : Front: L C R, Side: L R, LFE
Частота : 48,0 КГц
Битовая глубина : 24 бит
Метод сжатия : С потерями
Задержка видео : -328 мс.
Размер потока : 76,6 Мбайт (8%)
Текст #1
Идентификатор : 189 (0xBD)-32 (0x20)
Формат : RLE
Формат/Информация : Run-length encoding
Режим смешивания : DVD-Video
Продолжительность : 14 м.
Задержка видео : 520 мс.
Текст #2
Идентификатор : 189 (0xBD)-33 (0x21)
Формат : RLE
Формат/Информация : Run-length encoding
Режим смешивания : DVD-Video
Продолжительность : 14 м.
Задержка видео : 560 мс.
Меню
Общее
Полное имя : F:\Сохраненные фильмы\Мои_раздачи_BD_DVD\Весна на Заречной улице Blu ray_DVD9\VIDEO_TS\VTS_01_6.VOB
Формат : MPEG-PS
Размер файла : 1000 Мбайт
Продолжительность : 14 м.
Режим общего битрейта : Переменный
Общий поток : 9963 Кбит/сек
Видео
Идентификатор : 224 (0xE0)
Формат : MPEG Video
Версия формата : Version 2
Профиль формата : Main@Main
Параметр BVOP формата : Да
Параметр матрицы формата : Выборочная
Параметр GOP формата : M=3, N=15
Продолжительность : 14 м.
Вид битрейта : Переменный
Максимальный битрейт : 8450 Кбит/сек
Ширина : 720 пикселей
Высота : 576 пикселей
Соотношение сторон : 4:3
Частота кадров : 25,000 кадров/сек
Стандарт вещания : PAL
Цветовое пространство : YUV
Субдискретизация насыщенности : 4:2:0
Битовая глубина : 8 бит
Тип развёртки : Чересстрочная
Порядок развёртки : Верхнее поле первое
Метод сжатия : С потерями
Аудио #1
Идентификатор : 189 (0xBD)-129 (0x81)
Формат : AC-3
Формат/Информация : Audio Coding 3
Расширение режима : CM (complete main)
Параметр Endianness формата : Big
Режим смешивания : DVD-Video
Продолжительность : 14 м.
Вид битрейта : Постоянный
Битрейт : 448 Кбит/сек
Каналы : 6 каналов
Расположение каналов : Front: L C R, Side: L R, LFE
Частота : 48,0 КГц
Битовая глубина : 16 бит
Метод сжатия : С потерями
Задержка видео : -272 мс.
Размер потока : 45,0 Мбайт (4%)
Аудио #2
Идентификатор : 189 (0xBD)-130 (0x82)
Формат : AC-3
Формат/Информация : Audio Coding 3
Расширение режима : CM (complete main)
Параметр Endianness формата : Big
Режим смешивания : DVD-Video
Продолжительность : 14 м.
Вид битрейта : Постоянный
Битрейт : 192 Кбит/сек
Каналы : 1 канал
Расположение каналов : Front: C
Частота : 48,0 КГц
Битовая глубина : 16 бит
Метод сжатия : С потерями
Задержка видео : -240 мс.
Размер потока : 19,3 Мбайт (2%)
Аудио #3
Идентификатор : 189 (0xBD)-136 (0x88)
Формат : DTS
Формат/Информация : Digital Theater Systems
Режим смешивания : DVD-Video
Продолжительность : 14 м.
Вид битрейта : Постоянный
Битрейт : 755 Кбит/сек
Каналы : 6 каналов
Расположение каналов : Front: L C R, Side: L R, LFE
Частота : 48,0 КГц
Битовая глубина : 24 бит
Метод сжатия : С потерями
Задержка видео : -304 мс.
Размер потока : 75,7 Мбайт (8%)
Аудио #4
Идентификатор : 222 (0xDE)
Формат : MPEG Audio
Метод сжатия : С потерями
Текст #1
Идентификатор : 189 (0xBD)-32 (0x20)
Формат : RLE
Формат/Информация : Run-length encoding
Режим смешивания : DVD-Video
Задержка видео : 2 с. 200 мс.
Текст #2
Идентификатор : 189 (0xBD)-33 (0x21)
Формат : RLE
Формат/Информация : Run-length encoding
Режим смешивания : DVD-Video
Задержка видео : 2 с. 120 мс.
Меню
Общее
Полное имя : F:\Сохраненные фильмы\Мои_раздачи_BD_DVD\Весна на Заречной улице Blu ray_DVD9\VIDEO_TS\VTS_01_7.VOB
Формат : MPEG-PS
Размер файла : 397 Мбайт
Продолжительность : 5 м. 35 с.
Режим общего битрейта : Переменный
Общий поток : 9910 Кбит/сек
Видео
Идентификатор : 224 (0xE0)
Формат : MPEG Video
Версия формата : Version 2
Профиль формата : Main@Main
Параметр BVOP формата : Да
Параметр матрицы формата : Выборочная
Параметр GOP формата : M=3, N=15
Продолжительность : 5 м. 35 с.
Вид битрейта : Переменный
Битрейт : 8318 Кбит/сек
Максимальный битрейт : 8450 Кбит/сек
Ширина : 720 пикселей
Высота : 576 пикселей
Соотношение сторон : 4:3
Частота кадров : 25,000 кадров/сек
Стандарт вещания : PAL
Цветовое пространство : YUV
Субдискретизация насыщенности : 4:2:0
Битовая глубина : 8 бит
Тип развёртки : Чересстрочная
Порядок развёртки : Верхнее поле первое
Метод сжатия : С потерями
Бит/(Пиксели*Кадры) : 0.802
Размер потока : 333 Мбайт (84%)
Аудио #1
Идентификатор : 189 (0xBD)-129 (0x81)
Формат : AC-3
Формат/Информация : Audio Coding 3
Расширение режима : CM (complete main)
Параметр Endianness формата : Big
Режим смешивания : DVD-Video
Продолжительность : 5 м. 35 с.
Вид битрейта : Постоянный
Битрейт : 448 Кбит/сек
Каналы : 6 каналов
Расположение каналов : Front: L C R, Side: L R, LFE
Частота : 48,0 КГц
Битовая глубина : 16 бит
Метод сжатия : С потерями
Задержка видео : -216 мс.
Размер потока : 17,9 Мбайт (5%)
Аудио #2
Идентификатор : 189 (0xBD)-130 (0x82)
Формат : AC-3
Формат/Информация : Audio Coding 3
Расширение режима : CM (complete main)
Параметр Endianness формата : Big
Режим смешивания : DVD-Video
Продолжительность : 5 м. 35 с.
Вид битрейта : Постоянный
Битрейт : 192 Кбит/сек
Каналы : 1 канал
Расположение каналов : Front: C
Частота : 48,0 КГц
Битовая глубина : 16 бит
Метод сжатия : С потерями
Задержка видео : -184 мс.
Размер потока : 7,68 Мбайт (2%)
Аудио #3
Идентификатор : 189 (0xBD)-136 (0x88)
Формат : DTS
Формат/Информация : Digital Theater Systems
Режим смешивания : DVD-Video
Продолжительность : 5 м. 35 с.
Вид битрейта : Постоянный
Битрейт : 755 Кбит/сек
Каналы : 6 каналов
Расположение каналов : Front: L C R, Side: L R, LFE
Частота : 48,0 КГц
Битовая глубина : 24 бит
Метод сжатия : С потерями
Задержка видео : -270 мс.
Размер потока : 30,2 Мбайт (8%)

Используемый софт

Видео
ProCoder 3 - конвертация видео
AviSynth - обработка видео
DGDecodeNV - индексирование
Программы для разборки ремукса
tsMuxeR - разборка ремукса
Работа со звуком
TranzcodeGUI - извлечение WAV
Adobe Audition - обработка звуковых дорожек
Sonic Foundry Soft Encode - конвертация из формата WAV в AC3
Работа с меню и реавторинг
DVD-lab PRO 2 - реавторинг диска
MuxMan - проверка соответствия стандарту DVD(не завышен ли битрейт диска)
Adobe Photoshop - редактирование меню
СкриптLoadPlugin("C:\Program Files\Progr_convert_BD_DVD\DGDecodeNV\DGDecodeNV.dll")
DGSource("E:\Convertirov_ BD_DVD\Vesna_na_Zarechnoij_ulice\temp\DGIndexNV\Vesna_na_Zarechnoij_ulice.dgi") #если в исходнике отсутствуют артефакты
LoadPlugin("C:\Program Files\Progr_convert_BD_DVD\AutoYUY2\AutoYUY2.dll") #более медленный, но качественный аналог ConvertToYUY2()
AutoYUY2()
LoadPlugin("C:\Program Files\Progr_convert_BD_DVD\ColorMatrix\ColorMatrix.dll")
ColorMatrix(mode="Rec.709->Rec.601", inputFR=false, clamp=0) #корректировка цветовой шкалы, если проверка показывает 16-235
Crop(216,0,-216,0) #Обрезаем по бокам полосы
Lanczos4Resize(720, 560) #Уменьшаем до разрешения ПАЛа
AddBorders(0,8,0,8)
AssumeFPS(25) #Частота кадров ПАЛа

Скриншоты программ и настроек

Точка перехода

Скриншоты меню

Скриншоты

Фильм записан на диск Verbatim DVD+R DL программой ImgBurn по инструкции.
Работоспособность проверена на стационарном плеере SONY DVP-NS330 и рекордере BBK DW 9955K.
[Профиль] [ЛС]
Показать сообщения:    

Текущее время: Сегодня 21:31

Часовой пояс: GMT



Вы не можете начинать темы
Вы не можете отвечать на сообщения
Вы не можете редактировать свои сообщения
Вы не можете удалять свои сообщения
Вы не можете голосовать в опросах
Вы не можете прикреплять файлы к сообщениям
Вы не можете скачивать файлы