Весна на Заречной улице (Марлен Хуциев, Феликс Миронер)[1956, Мелодрама, HDTVRip] 720p | Цветная версия

 
Автор Сообщение

sergej644 ®

Пол:

Стаж: 4 года 11 месяцев

Сообщений: 6046

Откуда: Soviet Union



Награды: Нет

Торрент-статистика

Создавать темы 15-Июн-2015 21:20

[Цитировать]

--Весна на Заречной улице
Информация о фильме
Оригинальное название: Весна на Заречной улице
Год выпуска: 1956
Жанр: Мелодрама
Выпущено: СССР, Одесская киностудия
Режиссёр: Марлен Хуциев, Феликс Миронер
В ролях:
Нина Иванова, Николай Рыбников, Владимир Гуляев, Валентина Пугачёва, Геннадий Юхтин, Римма Шорохова, Николай Ключнев, Марина Гаврилко, Юрий Белов, Валентин Брылеев, Виктор Маркин, Евгений Коваленко, Александр Мороз, Люся Максимова, Жан Мельников
Описание:
История любви юной учительницы школы рабочей молодежи и ее ученика — одна из самых популярных отечественных мелодрам. Герой фильма, парень лихой и самоуверенный, лучший сталевар завода, не привык к отказам женщин. И вдруг его домогательства получают отпор!.. Поначалу он пытается играть в безразличие. Но проходит время — и он вдруг понимает, что к нему впервые пришло настоящее, глубокое чувство.

Файл
Кодек: MPEG-4 AVC
Качество видео: HDTVRip (720p) [Исходник: HDTV (1080i) от Mydimka]
Продолжительность: 01:30:03
Видео: MPEG-4 AVC, 4412 Кбит/с, 1280x720 (16:9), 25 кадр/с
Аудио: Русский, Dolby AC3, 48000 Гц, 224 Кбит/с, 2 канала (Стерео)

MediaInfo

General
Unique ID                        : 180680885987247966540617019607546909464 (0x87EDDF746AA38705A7FD7C6394F8D318)
Complete name                    : Vesna.na.Zarechnoy.ulitse.1956.HDTVRip.720p.mkv
Format                           : Matroska
File size                        : 2.92 GiB
Duration                         : 1h 30mn
Overall bit rate                 : 4 638 Kbps
Encoded date                     : UTC 2015-06-15 17:54:11
Writing application              : mkvmerge v6.1.0 ('Old Devil') built on Mar  4 2013 09:10:42
Writing library                  : libebml v1.3.0 + libmatroska v1.4.0
Video
ID                               : 1
Format                           : AVC
Format/Info                      : Advanced Video Codec
Format profile                   : High@L4.1
Format settings, CABAC           : Yes
Format settings, ReFrames        : 5 frames
Codec ID                         : V_MPEG4/ISO/AVC
Duration                         : 1h 30mn
Bit rate                         : 4 412 Kbps
Width                            : 1 280 pixels
Height                           : 720 pixels
Display aspect ratio             : 16:9
Frame rate                       : 25.000 fps
Color space                      : YUV
Chroma subsampling               : 4:2:0
Bit depth                        : 8 bits
Scan type                        : Progressive
Bits/(Pixel*Frame)               : 0.191
Stream size                      : 2.72 GiB (93%)
Writing library                  : x264 core 130 r2273 b3065e6
Encoding settings                : cabac=1 / ref=5 / deblock=1:-1:-1 / analyse=0x3:0x133 / me=umh / subme=9 / psy=1 / psy_rd=1.00:0.20 / mixed_ref=1 / me_range=32 / chroma_me=1 / trellis=2 / 8x8dct=1 / cqm=0 / deadzone=21,11 / fast_pskip=0 / chroma_qp_offset=-3 / threads=6 / lookahead_threads=1 / sliced_threads=0 / nr=0 / decimate=0 / interlaced=0 / bluray_compat=0 / constrained_intra=0 / bframes=4 / b_pyramid=2 / b_adapt=2 / b_bias=0 / direct=3 / weightb=1 / open_gop=0 / weightp=2 / keyint=250 / keyint_min=25 / scenecut=40 / intra_refresh=0 / rc_lookahead=50 / rc=2pass / mbtree=1 / bitrate=4412 / ratetol=1.0 / qcomp=0.60 / qpmin=0 / qpmax=69 / qpstep=4 / cplxblur=20.0 / qblur=0.5 / ip_ratio=1.40 / aq=1:1.00
Audio
ID                               : 2
Format                           : AC-3
Format/Info                      : Audio Coding 3
Mode extension                   : CM (complete main)
Codec ID                         : A_AC3
Duration                         : 1h 30mn
Bit rate mode                    : Constant
Bit rate                         : 224 Kbps
Channel(s)                       : 2 channels
Channel positions                : Front: L R
Sampling rate                    : 48.0 KHz
Bit depth                        : 16 bits
Compression mode                 : Lossy
Stream size                      : 144 MiB (5%)

Скриншоты

--


Последний раз редактировалось: sergej644 (2015-08-07 13:42), всего редактировалось 1 раз
[Профиль] [ЛС]
Показать сообщения:    

Текущее время: Сегодня 13:51

Часовой пояс: GMT



Вы не можете начинать темы
Вы не можете отвечать на сообщения
Вы не можете редактировать свои сообщения
Вы не можете удалять свои сообщения
Вы не можете голосовать в опросах
Вы не можете прикреплять файлы к сообщениям
Вы не можете скачивать файлы