Весна на Заречной улице (Феликс Миронер, Марлен Хуциев) [1956, CCCP, Мелодрама, HDTV 1080i] [Цветной]

 
Автор Сообщение

painkiller ®

Стаж: 2 года 3 месяца

Сообщений: 582



Награды: Нет

Торрент-статистика

Создавать темы 14-Авг-2014 13:06

[Цитировать]

Весна на Заречной улице
Страна: CCCP
Студия: Одесская киностудия художественных фильмов
Жанр: Мелодрама
Год выпуска: 1956
Продолжительность: 01:30:03
Перевод: Не требуется
Cубтитры: нет
Режиссер: Феликс Миронер и Марлен Хуциев
В ролях: Нина Иванова, Николай Рыбников, Владимир Гуляев, Валентина Пугачева, Геннадий Юхтин, Римма Шорохова, Николай Ключнев, Мария Гаврилко, Юрий Белов, Валентин Брылеев и другие.
Описание: История любви юной учительницы школы рабочей молодежи и ее ученика - одна из самых популярных отечественных мелодрам. Герой фильма, парень лихой и самоуверенный, лучший сталевар завода, не привык к отказам женщин. И вдруг его домогательства получают отпор! Поначалу он пытается играть в безразличие. Но проходит время - и он вдруг понимает, что к нему впервые пришло настоящее, глубокое чувство...
Сэмпл: http://rusfolder.com/36817264
Тип релиза: HDTV 1080i
Контейнер: TS
Источник: собственный рип
Доп. информация: Релиз -

Рип чистый. Без посторонних надписей. Выкладывается как есть.
Видео кодек: AVC
Аудио кодек: AC3, MP2
Видео: 1920x1080 (16:9) 25.000 fps 11.7 Mbps, 0.225 bit/pixel
Аудио 1: MPEG Audio 48000Hz stereo 192 Кбит/сек
Аудио 2: AC3 384 Kbps, 2 channels

Скриншоты


Скриншот с названием фильма

MI

GeneralID : 1 (0x1)Complete name : D:\Выкладка\Весна на Заречной улице (1965, Мелодрама, HDTV 1080i) (MYDIMKA).tsFormat : MPEG-TSFile size : 8.10 GiBDuration : 1h 30mnOverall bit rate mode : VariableOverall bit rate : 12.9 Mbps
VideoID : 305 (0x131)Menu ID : 1 (0x1)Format : AVCFormat/Info : Advanced Video CodecFormat profile : High@L4.0Format settings, CABAC : YesFormat settings, ReFrames : 3 framesFormat settings, GOP : M=4, N=28Codec ID : 27Duration : 1h 30mnBit rate : 11.7 MbpsWidth : 1 920 pixelsHeight : 1 080 pixelsDisplay aspect ratio : 16:9Frame rate : 25.000 fpsStandard : ComponentColor space : YUVChroma subsampling : 4:2:0Bit depth : 8 bitsScan type : InterlacedScan order : Top Field FirstBits/(Pixel*Frame) : 0.225Stream size : 7.33 GiB (91%)Color primaries : BT.709Transfer characteristics : BT.709Matrix coefficients : BT.709
Audio #1ID : 404 (0x194)Menu ID : 1 (0x1)Format : AC-3Format/Info : Audio Coding 3Mode extension : CM (complete main)Format settings, Endianness : BigCodec ID : 6Duration : 1h 30mnBit rate mode : ConstantBit rate : 384 KbpsChannel(s) : 2 channelsChannel positions : Front: L RSampling rate : 48.0 KHzBit depth : 16 bitsCompression mode : LossyStream size : 247 MiB (3%)Language : English
Audio #2ID : 405 (0x195)Menu ID : 1 (0x1)Format : MPEG AudioFormat version : Version 1Format profile : Layer 2Codec ID : 3Duration : 1h 30mnBit rate mode : ConstantBit rate : 192 KbpsChannel(s) : 2 channelsSampling rate : 48.0 KHzCompression mode : LossyStream size : 124 MiB (1%)Language : English
[Профиль] [ЛС]
Показать сообщения:    

Текущее время: Сегодня 20:33

Часовой пояс: GMT



Вы не можете начинать темы
Вы не можете отвечать на сообщения
Вы не можете редактировать свои сообщения
Вы не можете удалять свои сообщения
Вы не можете голосовать в опросах
Вы не можете прикреплять файлы к сообщениям
Вы не можете скачивать файлы