Весенний поток (Владимир Юренев) [1940, мелодрама, DVB]

 
Автор Сообщение

reversefile ®

Пол:

Стаж: 4 года 5 месяцев

Сообщений: 842

Откуда: ReverseFile.org



Награды: Нет

Торрент-статистика

Создавать темы 11-Авг-2014 06:20

[Цитировать]

Весенний поток
Жанр: мелодрама
Год выпуска: 1940
Продолжительность: 1:25:19
Режиссёр: Владимир Юренев
В ролях: Валентина Серова, Сергей Днепров, Михаил Астангов, Пётр Савин, Борис Свобода, Наталья Садовская, Александр Зражевский, Клавдия Кручинина, Борис Толмазов, Володя Митин, Игорь Бут, Ирина Федотова, Варвара Ремизова, Леонид Алексеев
Описание: Воспитанница детского дома Надя Кулагина после окончания института приезжает работать в школу, где когда-то училась.
Доп. информация:
Запись сделана и любезно предоставлена коллегой ItarTass.
Запись потока *.ts со спутника Ямал 202, 49° в.д., ремукс в *.mpg программой VideoReDo.
Качество видео: DVB
Формат видео: MPEG-PS
Видео: MPEG2 Video, 720x576 (4:3), 25,000 кадров/сек, 5084 Кбит/сек
Аудио: MPEG Audio, 48,0 КГц, 256 Кбит/сек, 2 канала

MediaInfo

Общее
Полное имя : D:\Torrent\Весенний поток (1940)(DVB)Kultura (02).mpg
Формат : MPEG-PS
Размер файла : 3,25 Гбайт
Продолжительность : 1 ч. 25 м.
Режим общего битрейта : Переменный
Общий поток : 5448 Кбит/сек
Видео
Идентификатор : 224 (0xE0)
Формат : MPEG Video
Версия формата : Version 2
Профиль формата : Main@Main
Параметр BVOP формата : Да
Параметр матрицы формата : Выборочная
Параметр GOP формата : M=3, N=15
Продолжительность : 1 ч. 25 м.
Вид битрейта : Переменный
Битрейт : 5084 Кбит/сек
Максимальный битрейт : 15,0 Мбит/сек
Ширина : 720 пикселей
Высота : 576 пикселей
Соотношение сторон : 4:3
Частота кадров : 25,000 кадров/сек
Стандарт вещания : PAL
Цветовое пространство : YUV
Субдискретизация насыщенности : 4:2:0
Битовая глубина : 8 бит
Тип развёртки : Чересстрочная
Порядок развёртки : Верхнее поле первое
Метод сжатия : С потерями
Бит/(Пиксели*Кадры) : 0.490
Временной код первого кадра : 00:00:00:00
Оригинал временного кода : Group of pictures header
Размер потока : 3,03 Гбайт (93%)
Аудио
Идентификатор : 192 (0xC0)
Формат : MPEG Audio
Версия формата : Version 1
Профиль формата : Layer 2
Продолжительность : 1 ч. 25 м.
Вид битрейта : Постоянный
Битрейт : 256 Кбит/сек
Каналы : 2 канала
Частота : 48,0 КГц
Метод сжатия : С потерями
Размер потока : 156 Мбайт (5%)
[Профиль] [ЛС]

Создавать темы 06-Авг-2015 22:04 (спустя 11 месяцев 26 дней)

Топик был перенесен из форума Кино СССР в форум Кино СССР
sergej644
 
Показать сообщения:    

Текущее время: Сегодня 10:50

Часовой пояс: GMT



Вы не можете начинать темы
Вы не можете отвечать на сообщения
Вы не можете редактировать свои сообщения
Вы не можете удалять свои сообщения
Вы не можете голосовать в опросах
Вы не можете прикреплять файлы к сообщениям
Вы не можете скачивать файлы