Весеннее обострение [01-04 из 04] (2015) HDTVRip

 
Автор Сообщение

достали все ®

Пол:

Стаж: 1 год 8 месяцев

Сообщений: 6559



Награды: 12 (Подробнее)

За внесенный вклад в развитие сайта (Количество: 1) Mega Releaser 2 (Количество: 1) Top Releaser 2 (Количество: 1)
Торрент-статистика

Создавать темы 07-Май-2016 05:42

[Цитировать]

Информация о фильме
Оригинальное название: Весеннее обострение
Год выпуска: 2015
Жанр: Комедия
Режиссер: Марина Мигунова
В ролях: Максим Виторган, Валентин Смирнитский, Александр Олешко, Алика Смехова, Янина Соколовская
О фильме: Костя Мелехин преподает биологию в школе. У него нет ни жены, ни девушки. И хоть Костя живет отдельно от матери, но в ближайшем будущем ему светит перспектива поселиться с ней под одной крышей, потому что матушка решила продать свою квартиру и квартиру сына и купить большой дом. Единственный выход, который видит Константин — срочно жениться, потому что с невесткой мать жить не захочет. Вот здесь-то и начинаются самые большие трудности, ведь найти подходящую девушку не так-то просто...
Страна: Россия
Студия: СинеЛаб Продакшн
Продолжительность: 4 х ~ 00:45:00
Перевод: не требуется
Файл
Качество: HDTVRip
Видео: XviD, ~ 1550 Кбит/с, 720x400
Аудио: АС3, 2 ch, 192 Кбит/с

MI

General
Complete name : X:раздачиВесеннее обострение.2016.HDTVRip.RG.Russkie.serialy.&.Files-x2.Весеннее обострение.2016.HDTVRip.RG.Russkie.serialy.&.Files-x.avi
Format : AVI
Format/Info : Audio Video Interleave
File size : 549 MiB
Duration : 43mn 22s
Overall bit rate : 1 771 Kbps
Writing application : VirtualDubMod 1.5.10.3 | www.virtualdub-fr.org || (build 2550/release)
Writing library : VirtualDubMod build 2550/release
Video
ID : 0
Format : MPEG-4 Visual
Format profile : Advanced Simple@L5
Format settings, BVOP : 1
Format settings, QPel : No
Format settings, GMC : No warppoints
Format settings, Matrix : Custom
Codec ID : XVID
Codec ID/Hint : XviD
Duration : 43mn 22s
Bit rate : 1 569 Kbps
Width : 720 pixels
Height : 400 pixels
Display aspect ratio : 16:9
Frame rate : 25.000 fps
Color space : YUV
Chroma subsampling : 4:2:0
Bit depth : 8 bits
Scan type : Progressive
Compression mode : Lossy
Bits/(Pixel*Frame) : 0.218
Stream size : 487 MiB (89%)
Writing library : XviD 73
Audio
ID : 1
Format : AC-3
Format/Info : Audio Coding 3
Mode extension : CM (complete main)
Format settings, Endianness : Big
Codec ID : 2000
Duration : 43mn 22s
Bit rate mode : Constant
Bit rate : 192 Kbps
Channel(s) : 2 channels
Channel positions : Front: L R
Sampling rate : 48.0 KHz
Frame rate : 31.250 fps (1536 spf)
Compression mode : Lossy
Stream size : 59.6 MiB (11%)
Alignment : Split accross interleaves
Interleave, duration : 40 ms (1.00 video frame)
Interleave, preload duratio : 500 ms

Скриншоты


[Профиль] [ЛС]
Показать сообщения:    

Текущее время: Сегодня 06:04

Часовой пояс: GMT



Вы не можете начинать темы
Вы не можете отвечать на сообщения
Вы не можете редактировать свои сообщения
Вы не можете удалять свои сообщения
Вы не можете голосовать в опросах
Вы не можете прикреплять файлы к сообщениям
Вы не можете скачивать файлы