(Pop) Веселые Ребята - Как прекрасен этот мир - 2013 [FLAC, image+.cue, lossless]

 
Автор Сообщение

sergej644 ®

Пол:

Стаж: 4 года 11 месяцев

Сообщений: 6042

Откуда: Soviet Union



Награды: Нет

Торрент-статистика

Создавать темы 05-Янв-2015 15:49

[Цитировать]

-Веселые Ребята / Как прекрасен этот мир-- Год издания: 2013
Страна: Росия
Жанр: Pop
Продолжительность: 00:55:36-Лейбл издания: BoMB Music
Страна-выпуска диска: Россия
Номер по каталогу: BoMB 033 - 838
Формат: FLAC
Битрейт аудио: lossless
Тип рипа: image+.cue
Наличие сканов в содержимом раздачи: да

Трэклист

01.Старинная рапсодия (03:34)
02.Что такого (03:20)
03.Полоса невезения (03:27)
04.За белою рекою (04:47)
05.Варшавский дождь (02:50)
06.Н. Паганини - Каприс № 24 (06:09)
07.Вечер при свечах (06:17)
08.Посреди зимы (03:39)
09.И.С. Бах - Токката d-moll (04:37)
10.Как прекрасен этот мир (03:56)
11.Снимем маски, господа (03:57)
12.Больше не встречу (04:43)
13.Только любовь (04:14)

Лог создания рипа

Exact Audio Copy V1.0 beta 3 from 29. August 2011
EAC extraction logfile from 7. February 2014, 23:28
Веселые Ребята / Как прекрасен этот мир
Used drive  : TEAC    DV-W524GSB   Adapter: 2  ID: 1
Read mode               : Secure
Utilize accurate stream : Yes
Defeat audio cache      : Yes
Make use of C2 pointers : No
Read offset correction                      : 6
Overread into Lead-In and Lead-Out          : No
Fill up missing offset samples with silence : Yes
Delete leading and trailing silent blocks   : No
Null samples used in CRC calculations       : Yes
Used interface                              : Native Win32 interface for Win NT & 2000
Used output format              : User Defined Encoder
Selected bitrate                : 320 kBit/s
Quality                         : High
Add ID3 tag                     : No
Command line compressor         : C:\Program Files\FLAC\flac.exe
Additional command line options : -V -8 -T "Date=%year%" -T "Genre=%genre%" %source%
TOC of the extracted CD
     Track |   Start  |  Length  | Start sector | End sector
    ---------------------------------------------------------
        1  |  0:00.00 |  3:34.19 |         0    |    16068
        2  |  3:34.19 |  3:20.50 |     16069    |    31118
        3  |  6:54.69 |  3:27.43 |     31119    |    46686
        4  | 10:22.37 |  4:47.32 |     46687    |    68243
        5  | 15:09.69 |  2:50.21 |     68244    |    81014
        6  | 18:00.15 |  6:09.31 |     81015    |   108720
        7  | 24:09.46 |  6:17.29 |    108721    |   137024
        8  | 30:27.00 |  3:39.03 |    137025    |   153452
        9  | 34:06.03 |  4:37.67 |    153453    |   174294
       10  | 38:43.70 |  3:56.55 |    174295    |   192049
       11  | 42:40.50 |  3:57.40 |    192050    |   209864
       12  | 46:38.15 |  4:43.60 |    209865    |   231149
       13  | 51:22.00 |  4:14.26 |    231150    |   250225
Range status and errors
Selected range
     Filename C:\Веселые Ребята - Как прекрасен этот мир.wav
     Peak level 97.7 %
     Extraction speed 6.1 X
     Range quality 100.0 %
     Test CRC 8C5E0FCE
     Copy CRC 8C5E0FCE
     Copy OK
No errors occurred
AccurateRip summary
Track  1  not present in database
Track  2  not present in database
Track  3  not present in database
Track  4  not present in database
Track  5  not present in database
Track  6  not present in database
Track  7  not present in database
Track  8  not present in database
Track  9  not present in database
Track 10  not present in database
Track 11  not present in database
Track 12  not present in database
Track 13  not present in database
None of the tracks are present in the AccurateRip database
End of status report

Индексная карта (non-compilant .cue)

REM GENRE Pop
REM DATE 2013
REM DISCID 990D080D
REM COMMENT "ExactAudioCopy v1.0b3"
PERFORMER "Веселые Ребята"
TITLE "Как прекрасен этот мир"
FILE "Веселые Ребята - Как прекрасен этот мир.flac" WAVE
  TRACK 01 AUDIO
    TITLE "Старинная рапсодия"
    PERFORMER "Веселые Ребята"
    INDEX 01 00:00:00
  TRACK 02 AUDIO
    TITLE "Что такого"
    PERFORMER "Веселые Ребята"
    INDEX 01 03:34:19
  TRACK 03 AUDIO
    TITLE "Полоса невезения"
    PERFORMER "Веселые Ребята"
    INDEX 01 06:54:69
  TRACK 04 AUDIO
    TITLE "За белою рекою"
    PERFORMER "Веселые Ребята"
    INDEX 01 10:22:37
  TRACK 05 AUDIO
    TITLE "Варшавский дождь"
    PERFORMER "Веселые Ребята"
    INDEX 01 15:09:69
  TRACK 06 AUDIO
    TITLE "Н. Паганини - Каприс № 24"
    PERFORMER "Веселые Ребята"
    INDEX 01 18:00:15
  TRACK 07 AUDIO
    TITLE "Вечер при свечах"
    PERFORMER "Веселые Ребята"
    INDEX 01 24:09:46
  TRACK 08 AUDIO
    TITLE "Посреди зимы"
    PERFORMER "Веселые Ребята"
    INDEX 01 30:27:00
  TRACK 09 AUDIO
    TITLE "И.С. Бах - Токката d-moll"
    PERFORMER "Веселые Ребята"
    INDEX 01 34:06:03
  TRACK 10 AUDIO
    TITLE "Как прекрасен этот мир"
    PERFORMER "Веселые Ребята"
    INDEX 01 38:43:70
  TRACK 11 AUDIO
    TITLE "Снимем маски, господа"
    PERFORMER "Веселые Ребята"
    INDEX 01 42:40:50
  TRACK 12 AUDIO
    TITLE "Больше не встречу"
    PERFORMER "Веселые Ребята"
    INDEX 01 46:38:15
  TRACK 13 AUDIO
    TITLE "Только любовь"
    PERFORMER "Веселые Ребята"
    INDEX 01 51:22:00

дополнительная информация:

--
[Профиль] [ЛС]

Создавать темы 13-Авг-2015 10:05 (спустя 7 месяцев 7 дней)

Топик был перенесен из форума Отечественная в форум Pop
sergej644
 
Кто просматривает тему:

Форум Тема Автор Размер
Pop (Pop) Веселые Ребята - Не волнуйтесь, тетя - 2013 [FLAC, image+.cue, lossless] sergej644 484 MB
Показать сообщения:    

Текущее время: Сегодня 14:28

Часовой пояс: GMT



Вы не можете начинать темы
Вы не можете отвечать на сообщения
Вы не можете редактировать свои сообщения
Вы не можете удалять свои сообщения
Вы не можете голосовать в опросах
Вы не можете прикреплять файлы к сообщениям
Вы не можете скачивать файлы