Веселая семейка снова в деле / Сумасшедшая Семейка 2 / Yamla Pagla Deewana 2 (2015) HDRip | P

 
Автор Сообщение

достали все ®

Пол:

Стаж: 1 год 8 месяцев

Сообщений: 6525



Награды: 12 (Подробнее)

Mega Seeder 2 (Количество: 1) Mega Seeder 5 (Количество: 1) Top Releaser 2 (Количество: 1)
Торрент-статистика

Создавать темы 29-Июн-2015 14:33

[Цитировать]

Информация о фильме
Название: Веселая семейка снова в деле (Сумасшедшая Семейка 2)
Оригинальное название: Yamla Pagla Deewana 2
Год выхода: 2013
Жанр: Боевик, драма, комедия
Режиссер: Сангит Сиван
В ролях: Дхармендра, Санни Деол, Бобби Деол, Неха Шарма, Кристина Ахеева, Анну Капур, Джонни Левер, Сушита Ханна, Эйдан Кук, Анупам Кхер
Описание: Веселая семейка вновь собирается вместе. На этот раз в Великобритании. Теперь веселая троица вдвойне полна задора, веселья и романтики, ведь к ним присоединились две очаровательные девушки.

Выпущено: Индия, Sunny Super Sound, YPD Films
Продолжительность: 02:34:00
Озвучивание: Профессиональный (многоголосый закадровый) - SDI Media (т/к Индия ТВ)
Файл
Формат: AVI (XviD)
Качество: DVDRip
Видео: 1215 kb/s, 688x288
Звук: AC3, 192 kb/s (2 ch)
Размер: 1.46 GB
Скачать:Сэмпл---

Media Info

General
Complete name : C:INDIYAVeselaya.Semeyka.Snova.V.Dele.2013.P.HDRip.XviD-soso4eg.avi
Format : AVI
Format/Info : Audio Video Interleave
File size : 1.46 GiB
Duration : 2h 34mn
Overall bit rate : 1 353 Kbps
Movie name : Yamla.Pagla.Deewana-2.2013.HDRip.XviD-soso4eg
Director : soso4eg
Writing application : VirtualDubMod 1.5.10.2 (build 2540/release)
Original source form/Name : Hindi
Comment : пер. SDI Media
Video
ID : 0
Format : MPEG-4 Visual
Format profile : Advanced Simple@L5
Format settings, BVOP : 1
Format settings, QPel : No
Format settings, GMC : No warppoints
Format settings, Matrix : Default (MPEG)
Codec ID : XVID
Codec ID/Hint : XviD
Duration : 2h 34mn
Bit rate : 1 216 Kbps
Width : 688 pixels
Height : 288 pixels
Display aspect ratio : 2.40:1
Frame rate : 24.000 fps
Color space : YUV
Chroma subsampling : 4:2:0
Bit depth : 8 bits
Scan type : Progressive
Compression mode : Lossy
Bits/(Pixel*Frame) : 0.256
Stream size : 1.31 GiB (90%)
Writing library : XviD 1.2.1 (UTC 2008-12-04)
Audio
ID : 1
Format : MPEG Audio
Format version : Version 1
Format profile : Layer 3
Mode : Joint stereo
Mode extension : MS Stereo
Codec ID : 55
Codec ID/Hint : MP3
Duration : 2h 34mn
Bit rate mode : Constant
Bit rate : 128 Kbps
Channel(s) : 2 channels
Sampling rate : 48.0 KHz
Compression mode : Lossy
Stream size : 141 MiB (9%)
Alignment : Aligned on interleaves
Interleave, duration : 42 ms (1.00 video frame)
Interleave, preload duratio : 504 ms
--- --- -

Скриншоты

-
[Профиль] [ЛС]
Показать сообщения:    

Текущее время: Сегодня 11:54

Часовой пояс: GMT



Вы не можете начинать темы
Вы не можете отвечать на сообщения
Вы не можете редактировать свои сообщения
Вы не можете удалять свои сообщения
Вы не можете голосовать в опросах
Вы не можете прикреплять файлы к сообщениям
Вы не можете скачивать файлы