Вершины мира ( 20 серий из 20 ) / Les Montagnes di Monde (Эммануель Декомб / Emmanuel Descombes) [2010, Франция, Документальный, научно-познавательный, природа, путешествие, исследование, флора, фауна, HDTVRip 720p] MVO

 
Автор Сообщение

TorrentFilm ®

Пол:

Стаж: 2 года

Сообщений: 7741



Награды: Нет

Торрент-статистика

Создавать темы 11-Янв-2015 00:01

[Цитировать]

Вершины мира / Les Montagnes di Monde
Год выпуска: 2010
Страна: Франция
Студия: ARTE France, Alain WIEDER
Жанр: Документальный, научно-познавательный, природа, путешествие, исследование, флора, фауна
Продолжительность: 20 х ~ 00:43:00
Перевод: Профессиональный (многоголосый закадровый)
Режиссёр: Эммануель Декомб / Emmanuel Descombes
Описание: Сериал расскажет о высочайших вершинах мира, о природе этих краёв и людях, проживающих в этих регионах, их обычаях и укладе жизни.
Качество: HDTVRip (720p)
Формат: MKV
Видео: MPEG-4 AVC, 1280x720, ~ 3500 kbps, 25.000 fps
Аудио: Russian: AC3 2.0, 48 kHz, 192 kbps

Список эпизодов:
01. Аляска. Мак-Кинли
02. Камерун
03. ЮАР
04. Китай. Юлун
05. Эквадор
06. Эфиопия
07. Казахстан и Киргизия. Пик Победы
08. Южная Индия. Чембра
09. Сулавеси. Рантемарио
10. Ливан
11. Ладакх. Каракорум
12. Монголия
13. Непал. Манаслу
14. Танзания. Килиманджаро
15. Вьетнам. Фаншипан
16. Боливия. Вершины Сарамы
17. Йемен. Эн-Наби-Шуайб
18. Нагорный Карабах. Гомыш
19. Япония. Мияма
20. Колумбия

MediaInfo

General
Unique ID : 226537988674080348477232682180567637926 (0xAA6DA12CFF84A0DAB2498FB585201FA6)
Complete name : G:\инет\Вершины мира.2010.x264.HDTVRip.(720p)\15.Вьетнам.Фаншипан.mkv
Format : Matroska
Format version : Version 4 / Version 2
File size : 1.13 GiB
Duration : 42mn 59s
Overall bit rate : 3 754 Kbps
Movie name : Вершины мира. Вьетнам. Фаншипан / 2010 / Rip by PowerRock / ExKinoRay
Encoded date : UTC 2015-01-07 23:48:54
Writing application : mkvmerge v7.4.0 ('Circles') 64bit built on Dec 12 2014 12:19:56
Writing library : libebml v1.3.0 + libmatroska v1.4.1
DURATION : 00:42:59.968000000
NUMBER_OF_FRAMES : 80624
NUMBER_OF_BYTES : 61919232
_STATISTICS_WRITING_APP : mkvmerge v7.4.0 ('Circles') 64bit built on Dec 12 2014 12:19:56
_STATISTICS_WRITING_DATE_UTC : 2015-01-07 23:48:54
_STATISTICS_TAGS : BPS DURATION NUMBER_OF_FRAMES NUMBER_OF_BYTES
Video
ID : 1
Format : AVC
Format/Info : Advanced Video Codec
Format profile : High@L4.1
Format settings, CABAC : Yes
Format settings, ReFrames : 7 frames
Codec ID : V_MPEG4/ISO/AVC
Duration : 42mn 59s
Bit rate : 3 561 Kbps
Width : 1 280 pixels
Height : 720 pixels
Display aspect ratio : 16:9
Frame rate mode : Constant
Frame rate : 25.000 fps
Color space : YUV
Chroma subsampling : 4:2:0
Bit depth : 8 bits
Scan type : Progressive
Bits/(Pixel*Frame) : 0.155
Stream size : 1.05 GiB (93%)
Title : Вершины мира. Вьетнам. Фаншипан / 2010
Writing library : x264 core 130 r2273 b3065e6
Encoding settings : cabac=1 / ref=7 / deblock=1:-2:-1 / analyse=0x3:0x133 / me=umh / subme=10 / psy=1 / psy_rd=1.00:0.10 / mixed_ref=1 / me_range=24 / chroma_me=1 / trellis=2 / 8x8dct=1 / cqm=0 / deadzone=21,11 / fast_pskip=0 / chroma_qp_offset=-3 / threads=6 / lookahead_threads=1 / sliced_threads=0 / nr=0 / decimate=1 / interlaced=0 / bluray_compat=0 / constrained_intra=0 / bframes=5 / b_pyramid=2 / b_adapt=2 / b_bias=0 / direct=3 / weightb=1 / open_gop=0 / weightp=2 / keyint=250 / keyint_min=23 / scenecut=40 / intra_refresh=0 / rc_lookahead=50 / rc=2pass / mbtree=1 / bitrate=3561 / ratetol=1.0 / qcomp=0.60 / qpmin=10 / qpmax=51 / qpstep=4 / cplxblur=20.0 / qblur=0.5 / ip_ratio=1.40 / aq=1:1.00
Default : Yes
Forced : No
DURATION : 00:42:59.960000000
NUMBER_OF_FRAMES : 64499
NUMBER_OF_BYTES : 1148230229
_STATISTICS_WRITING_APP : mkvmerge v7.4.0 ('Circles') 64bit built on Dec 12 2014 12:19:56
_STATISTICS_WRITING_DATE_UTC : 2015-01-07 23:48:54
_STATISTICS_TAGS : BPS DURATION NUMBER_OF_FRAMES NUMBER_OF_BYTES
Audio
ID : 2
Format : AC-3
Format/Info : Audio Coding 3
Mode extension : CM (complete main)
Format settings, Endianness : Big
Codec ID : A_AC3
Duration : 42mn 59s
Bit rate mode : Constant
Bit rate : 192 Kbps
Channel(s) : 2 channels
Channel positions : Front: L R
Sampling rate : 48.0 KHz
Bit depth : 16 bits
Compression mode : Lossy
Stream size : 59.1 MiB (5%)
Language : Russian
Default : Yes
Forced : No

Скриншоты



[Профиль] [ЛС]
Кто просматривает тему:

Форум Тема Автор Размер
Сhanson (Шансон) Влада Вершинина - Вкус горечи - 2015, MP3, 128 kbps Magnat 63 MB
Фантастика, фэнтези Артем Каменистый - Возвращение к вершинам (2016) FB2 достали все 2 MB
Разная литература Вершинин Лев - Преступная история США. Статуя кровавой свободы (2016) FB2 достали все 1 MB
Зарубежные сериалы Горное озеро (Озерная гладь, Вершина озера) / Top of the Lake [S01] (2013) BDRip 720p от MediaClub | P | Amedia Белочка 16.04 GB
Документальные HD Над вершинами / Au-delà des cimes (Реми Тезье / Rémy Tezier) [2009, документальный, спорт, экстрим, альпинизм, путешествия, BDRip 720p] TorrentFilm 4.21 GB
Документальные HD Над вершинами / Au-delà Des Cimes / Beyond The Summits (Реми Тезье / Rémy Tezier) [2009, Документальный, спорт, экстрим, альпинизм, BDRemux 1080i] TorrentFilm 14.52 GB
Документальные HD Пять вершин России [2013, Документальный, HDTV 1080i] TorrentFilm 6.92 GB
Фильмы (HD Rips | 720p, 1080p) Эверест — вершина богов / Everesuto: Kamigami no itadaki (2016) BDRip 1080p | L достали все 9.73 GB
Показать сообщения:    

Текущее время: Сегодня 12:27

Часовой пояс: GMT



Вы не можете начинать темы
Вы не можете отвечать на сообщения
Вы не можете редактировать свои сообщения
Вы не можете удалять свои сообщения
Вы не можете голосовать в опросах
Вы не можете прикреплять файлы к сообщениям
Вы не можете скачивать файлы