Верхом на Торнадо / Riding Tornado / Tornado and the Kalahari Horse Whisperer (Регардт ван ден Берг / Regardt van den Bergh) [2009, ЮАР, драма, DVB-AVC] DVO (Kino Polska)

 
Автор Сообщение

TorrentFilm ®

Пол:

Стаж: 2 года

Сообщений: 7741



Награды: Нет

Торрент-статистика

Создавать темы 10-Сен-2015 00:10

[Цитировать]

Верхом на Торнадо
Riding Tornado- Страна: ЮАР
Жанр: драма
Год выпуска: 2009
Продолжительность: 01:49:47Перевод: Профессиональный (двухголосый закадровый) по заказу Kino Polska на производственно-технической базе Студии "Акцент"
Cубтитры: нет
Режиссер: Регардт ван ден Берг / Regardt van den Bergh
В ролях: Квентин Крог / Quentin Krog (Pierre van Rooyen), Дэнни Кео / Danny Keogh (Barrie Burger), Леан ван ден Берг / Leán van den Bergh (Meretha), Джоани Комбринк / Joanie Combrink (Anette Burger), Анжелика Преториус / Angelique Pretorius (Jessica)
Описание: Фильм основан на реальной истории и рассказывает о дружбе эмоционально неустойчивого молодого человека Пьера и раненого коня по кличке Торнадо. Вместе они отправляются в сердце пустыни Калахари к заклинателю лошадей, чтобы спасти коня от мрачного будущего и восстановить душевное равновесие Пьера.
Доп. информация: Filmbox IPTV
Награды: 6 премий Angel Film Award - Monaco International Film Festival 2009 (лучший режиссер, оператор, сценарий, оригинальная музыка, актер второго плана - Danny Keogh, Гуманитарная премия за лучший полнометражный фильм).

Качество видео: DVB-AVC
Формат видео: MKV
Видео: AVC (H.264), 720x576@1024x576 (16:9), 25 fps, ~1494 kbps avg, 0.144 bit/pixel
Аудио: MPEG Audio 2, 2 ch, 48 kHz, ~128.00 kbps avg

MediaInfo

ОбщееУникальный идентификатор : 235902629049217051740808265749737069676 (0xB1793197EEB9057BB627E1B719215C6C)Полное имя : F:\My Torrents 3\[apreder]Riding_Tornado(2009)DVB.mkvФормат : MatroskaВерсия формата : Version 2Размер файла : 1,27 ГбайтПродолжительность : 1 ч. 49 м.Общий поток : 1655 Кбит/секДата кодирования : UTC 2015-09-09 07:08:58Программа кодирования : mkvmerge v8.3.0 ('Over the Horizon') 64bitБиблиотека кодирования : libebml v1.3.1 + libmatroska v1.4.2Attachements : cover.jpg / cover_small.jpgTITLE : Riding TornadoIMDB : tt1598725DATE_RELEASED : 2009-11-18LAW_RATING : 12+GENRE : Drama, FamilyACTOR : Danny Keogh, Quentin KrogDIRECTOR : Regardt van den BerghKEYWORDS : torrentfilm.net
ВидеоИдентификатор : 1Формат : AVCФормат/Информация : Advanced Video CodecПрофиль формата : High@L3Параметр CABAC формата : ДаПараметр ReFrames формата : 3 кадраПараметр GOP формата : M=1, N=25Идентификатор кодека : V_MPEG4/ISO/AVCПродолжительность : 1 ч. 49 м.Битрейт : 1494 Кбит/секШирина : 720 пикселейВысота : 576 пикселейСоотношение сторон : 16:9Соотношение сторон в оригинале : 16:9Режим частоты кадров : ПостоянныйЧастота кадров : 25,000 кадров/секСтандарт вещания : PALЦветовое пространство : YUVСубдискретизация насыщенности : 4:2:0Битовая глубина : 8 битТип развёртки : ПрогрессивнаяБит/(Пиксели*Кадры) : 0.144Размер потока : 1,15 Гбайт (90%)Default : ДаForced : Нет
АудиоИдентификатор : 2Формат : MPEG AudioВерсия формата : Version 1Профиль формата : Layer 2Идентификатор кодека : A_MPEG/L2Идентификатор кодека/Подсказка : MP2Продолжительность : 1 ч. 49 м.Вид битрейта : ПостоянныйБитрейт : 128 Кбит/секКаналы : 2 каналаЧастота : 48,0 КГцМетод сжатия : С потерямиЗадержка видео : -12 мс.Размер потока : 101 Мбайт (8%)Язык : RussianDefault : ДаForced : Нет

Скриншот c названием фильма

Скриншоты


Резервные скриншоты


- [2'590]
[Профиль] [ЛС]

Создавать темы 12-Июн-2016 08:13 (спустя 9 месяцев 2 дня)

Топик был перенесен из форума Фильмы 2011 года в форум Фильмы 2009 года
Russian Mafia
 
Показать сообщения:    

Текущее время: Сегодня 19:36

Часовой пояс: GMT



Вы не можете начинать темы
Вы не можете отвечать на сообщения
Вы не можете редактировать свои сообщения
Вы не можете удалять свои сообщения
Вы не можете голосовать в опросах
Вы не можете прикреплять файлы к сообщениям
Вы не можете скачивать файлы