Версия / Rendition (Гэвин Худ / Gavin Hood) [2007, США, триллер, драма, BDRip-AVC] MVO + Original (Eng) + Subs (Rus, Eng)

 
Автор Сообщение

TorrentFilm ®

Пол:

Стаж: 2 года

Сообщений: 7741



Награды: Нет

Торрент-статистика

Создавать темы 13-Фев-2015 00:00

[Цитировать]

Версия / Rendition«Что если твой человек... внезапно исчезнет?»- Страна: США
Жанр: триллер, драма
Год выпуска: 2007
Продолжительность: 02:02:20-Перевод: Профессиональный (многоголосый закадровый) - R5
Оригинальная аудиодорожка: English
Cубтитры: Русские (полные), English (full + forced)
Навигация по главам: присутствует - 21 глава-Режиссер: Гэвин Худ / Gavin Hood
В ролях: Джейк Джилленхол, Риз Уизерспун, Мэрил Стрип, Алан Аркин, Питер Сарсгаард, Омар Метуолли, Игал Наор, Хадар Ратсон Ротем, Дж.К. Симмонс, Симон Абкарян-Описание: Когда при перелете из Африки в Америку бесследно «исчезает» египтянин Анвар, подозреваемый в терроризме, его американская жена Изабелла и аналитик ЦРУ Дуглас всеми силами пытаются вызволить его из находящейся за пределами США секретной тюрьмы, где Анвара подвергают жестоким пыткам, пытаясь «выбить» из него признание.-
Download sample-Качество видео: BDRip-AVC | исх. BDRemux 1080p - thx: rainbow.n
Формат: MKV-Видео: 1 120x476 (2.35:1), 23.976 fps, H.264 ~1723 kbps avg, 0.131 bit/pixel
Аудио №1: 48.0 kHz, AC3 Dolby Digital, 3/2 (L,C,R,l,r) + LFE ch, ~448 kbps | Профессиональный (многоголосый закадровый) - R5
Аудио №2: 48.0 kHz, AC3 Dolby Digital, 3/2 (L,C,R,l,r) + LFE ch, ~448 kbps | English-

MediaInfo

General
Unique ID : 220661097366955234033290587277027275085 (0xA601C810415D500B83717D7C5C99714D)
Complete name : D:\Фильмы\Рипы\Rendition.2007.BDRip-AVC.eFK tRuAVC.mkv
Format : Matroska
Format version : Version 4 / Version 2
File size : 2.24 GiB
Duration : 2h 2mn
Overall bit rate : 2 622 Kbps
Movie name : Версия / Rendition (2007) - Release for rutracker
Encoded date : UTC 2015-02-11 21:18:01
Writing application : mkvmerge v7.6.0 ('Garden of Dreams') 64bit built on Feb 8 2015 13:04:34
Writing library : libebml v1.3.1 + libmatroska v1.4.2
Attachements : cover.png
DURATION : 01:43:07.476000000
NUMBER_OF_FRAMES : 302
NUMBER_OF_BYTES : 6547
_STATISTICS_WRITING_APP : mkvmerge v7.6.0 ('Garden of Dreams') 64bit built on Feb 8 2015 13:04:34
_STATISTICS_WRITING_DATE_UT : 2015-02-11 21:18:01
_STATISTICS_TAGS : BPS DURATION NUMBER_OF_FRAMES NUMBER_OF_BYTES
Video
ID : 1
Format : AVC
Format/Info : Advanced Video Codec
Format profile : High@L4.1
Format settings, CABAC : Yes
Format settings, ReFrames : 14 frames
Codec ID : V_MPEG4/ISO/AVC
Duration : 2h 2mn
Bit rate : 1 674 Kbps
Width : 1 120 pixels
Height : 476 pixels
Display aspect ratio : 2.35:1
Frame rate mode : Constant
Frame rate : 23.976 fps
Color space : YUV
Chroma subsampling : 4:2:0
Bit depth : 8 bits
Scan type : Progressive
Bits/(Pixel*Frame) : 0.131
Stream size : 1.43 GiB (64%)
Title : eFK tRuAVC
Writing library : x264 core 144 r2525kMod 40bb568
Encoding settings : cabac=1 / ref=14 / deblock=1:-2:-2 / analyse=0x3:0x133 / me=umh / subme=11 / psy=1 / fade_compensate=0.00 / psy_rd=1.05:0.00 / mixed_ref=1 / me_range=32 / chroma_me=1 / trellis=2 / 8x8dct=1 / cqm=0 / deadzone=21,11 / fast_pskip=0 / chroma_qp_offset=-2 / threads=12 / lookahead_threads=3 / sliced_threads=0 / nr=0 / decimate=1 / interlaced=0 / bluray_compat=0 / constrained_intra=0 / fgo=0 / bframes=16 / b_pyramid=2 / b_adapt=2 / b_bias=0 / direct=3 / weightb=1 / open_gop=0 / weightp=2 / keyint=250 / keyint_min=23 / scenecut=40 / intra_refresh=0 / rc_lookahead=60 / rc=crf / mbtree=0 / crf=19.5000 / qcomp=0.70 / qpmin=0 / qpmax=69 / qpstep=4 / vbv_maxrate=50000 / vbv_bufsize=62500 / crf_max=0.0 / nal_hrd=none / filler=0 / ip_ratio=1.40 / pb_ratio=1.30 / aq=3:1.10
Language : English
Default : Yes
Forced : No
Color primaries : BT.709
Transfer characteristics : BT.709
Matrix coefficients : BT.709
Color range : Limited
DURATION : 02:02:20.584000000
NUMBER_OF_FRAMES : 175998
NUMBER_OF_BYTES : 1581279255
_STATISTICS_WRITING_APP : mkvmerge v7.6.0 ('Garden of Dreams') 64bit built on Feb 8 2015 13:04:34
_STATISTICS_WRITING_DATE_UT : 2015-02-11 21:18:01
_STATISTICS_TAGS : BPS DURATION NUMBER_OF_FRAMES NUMBER_OF_BYTES
Audio #1
ID : 2
Format : AC-3
Format/Info : Audio Coding 3
Mode extension : CM (complete main)
Format settings, Endianness : Big
Codec ID : A_AC3
Duration : 2h 2mn
Bit rate mode : Constant
Bit rate : 448 Kbps
Channel(s) : 6 channels
Channel positions : Front: L C R, Side: L R, LFE
Sampling rate : 48.0 KHz
Bit depth : 16 bits
Compression mode : Lossy
Delay relative to video : 65ms
Stream size : 392 MiB (17%)
Title : MVO (R5)
Language : Russian
Default : Yes
Forced : No
Audio #2
ID : 3
Format : AC-3
Format/Info : Audio Coding 3
Mode extension : CM (complete main)
Format settings, Endianness : Big
Codec ID : A_AC3
Duration : 2h 2mn
Bit rate mode : Constant
Bit rate : 448 Kbps
Channel(s) : 6 channels
Channel positions : Front: L C R, Side: L R, LFE
Sampling rate : 48.0 KHz
Bit depth : 16 bits
Compression mode : Lossy
Stream size : 392 MiB (17%)
Language : English
Default : No
Forced : No
Text #1
ID : 4
Format : UTF-8
Codec ID : S_TEXT/UTF8
Codec ID/Info : UTF-8 Plain Text
Title : full
Language : Russian
Default : No
Forced : No
Text #2
ID : 5
Format : UTF-8
Codec ID : S_TEXT/UTF8
Codec ID/Info : UTF-8 Plain Text
Title : full
Language : English
Default : No
Forced : No
Text #3
ID : 6
Format : UTF-8
Codec ID : S_TEXT/UTF8
Codec ID/Info : UTF-8 Plain Text
Title : forced
Language : English
Default : No
Forced : No
Menu
00:00:00.000 : en:Chapter 01
00:02:27.147 : en:Chapter 02
00:09:56.929 : en:Chapter 03
00:17:08.902 : en:Chapter 04
00:23:06.468 : en:Chapter 05
00:33:28.256 : en:Chapter 06
00:39:51.972 : en:Chapter 07
00:49:03.023 : en:Chapter 08
00:56:47.612 : en:Chapter 09
01:05:10.740 : en:Chapter 10
01:08:47.414 : en:Chapter 11
01:13:43.377 : en:Chapter 12
01:19:17.753 : en:Chapter 13
01:24:48.792 : en:Chapter 14
01:32:31.295 : en:Chapter 15
01:34:46.055 : en:Chapter 16
01:42:29.434 : en:Chapter 17
01:46:03.774 : en:Chapter 18
01:49:24.849 : en:Chapter 19
01:54:10.844 : en:Chapter 20
02:02:18.622 : en:Chapter 21

x264 log

x264 [info]: frame I:1174 Avg QP:14.95 size: 53058
x264 [info]: frame P:34841 Avg QP:16.22 size: 20872
x264 [info]: frame B:139983 Avg QP:18.02 size: 5656
x264 [info]: consecutive B-frames: 1.6% 2.9% 5.6% 16.2% 16.9% 24.7% 7.6% 19.9% 2.9% 0.6% 0.3% 0.2% 0.1% 0.0% 0.1% 0.3% 0.2%
x264 [info]: mb I I16..4: 8.5% 74.5% 17.0%
x264 [info]: mb P I16..4: 2.1% 8.0% 1.2% P16..4: 32.1% 37.6% 13.9% 1.8% 0.1% skip: 3.1%
x264 [info]: mb B I16..4: 0.9% 0.5% 0.1% B16..8: 36.6% 20.0% 2.9% direct: 4.2% skip:34.7% L0:45.5% L1:46.5% BI: 7.9%
x264 [info]: 8x8 transform intra:61.1% inter:60.6%
x264 [info]: direct mvs spatial:100.0% temporal:0.0%
x264 [info]: coded y,uvDC,uvAC intra: 65.2% 81.7% 65.4% inter: 16.5% 15.1% 2.4%
x264 [info]: i16 v,h,dc,p: 87% 3% 2% 8%
x264 [info]: i8 v,h,dc,ddl,ddr,vr,hd,vl,hu: 8% 7% 9% 10% 14% 13% 13% 13% 14%
x264 [info]: i4 v,h,dc,ddl,ddr,vr,hd,vl,hu: 11% 8% 15% 8% 13% 12% 12% 10% 12%
x264 [info]: i8c dc,h,v,p: 35% 32% 20% 12%
x264 [info]: Weighted P-Frames: Y:4.0% UV:1.6%
x264 [info]: ref P L0: 42.9% 7.9% 16.1% 7.2% 5.7% 4.5% 3.8% 2.3% 2.0% 1.8% 1.6% 1.5% 1.3% 1.3% 0.2% 0.0%
x264 [info]: ref B L0: 68.4% 12.0% 5.9% 3.1% 2.5% 2.1% 1.7% 1.1% 1.0% 0.9% 0.8% 0.5% 0.2%
x264 [info]: ref B L1: 91.7% 8.3%
x264 [info]: kb/s:1723.33
x264 [total]: encoded 175998 frames, 10.24 fps, 1723.33 kb/s, duration 4:46:28.66

Comparison

Source

Encode
[Профиль] [ЛС]

Создавать темы 06-Авг-2015 22:44 (спустя 5 месяцев 21 день)

Топик был перенесен из форума Фильмы до 2014 года в форум Фильмы до 2012 года
sergej644
 
Показать сообщения:    

Текущее время: Сегодня 08:06

Часовой пояс: GMT



Вы не можете начинать темы
Вы не можете отвечать на сообщения
Вы не можете редактировать свои сообщения
Вы не можете удалять свои сообщения
Вы не можете голосовать в опросах
Вы не можете прикреплять файлы к сообщениям
Вы не можете скачивать файлы