Версия полковника Зорина (1978) DVDRip-AVC

 
Автор Сообщение

BOSS ®

Пол:

Стаж: 2 года 1 месяц

Сообщений: 3738

Откуда: ODESSA



Награды: 20 (Подробнее)

Top Seeder 5 (Количество: 1) Mega Releaser 1 (Количество: 1) Top Keeper 4 (Количество: 1)
Торрент-статистика

Создавать темы 08-Янв-2016 20:17

[Цитировать]

Страна: СССР
Производство: Мосфильм
Жанр: детектив, криминал
Год выпуска: 1978
Продолжительность: 01:24:16
Перевод: не требуется
Оригинальная аудиодорожка: русский
Cубтитры: нет
Режиссер: Андрей Ладынин
В ролях:
Всеволод Санаев, Борис Иванов, Иван Воронов, Владимир Тихонов, Петр Вельяминов, Вилныс Бекерис, Елена Драпеко, Анатолий Веденкин, Алевтина Евдокимова, Шавкат Газиев, Валентина Виолкова, Александр Андрусенко, Александр Александров, Владимир Приходько...
Описание:
В самом центре города, среди бела дня, совершено дерзкое ограбление ювелирного магазина.
Через несколько дней в пригороде находят труп мужчины, при котором найдено кольцо из числа украденных. Выясняется, что убитый был ранее судим и связан с местным криминальным авторитетом. Но и авторитета вскоре находят убитым. У ведущего дело полковника милиции Ивана Сергеевича Зорина появляется версия, что преступное дело организовал кто-то из работников ограбленного магазина.
Организатор шайки не только не думает скрываться, но и спокойно общается со следователем. Он уверен, что тонко просчитал все ходы, а потому неуязвим…- -Исходник: DVD5 R5
Тип релиза: DVDRip
Контейнер: AVI
Видео: 720->1024x440 (2,35:1), 25 fps, XviD ~ 1042 kbps avg, 0.132 bit/pixel
Аудио: 48 kHz, Dolby AC3 2.0, 192 kbps

MediaInfo

Общее
Полное имя : Versiya.polkovnika.Zorina.1978.DVDRip-AVC_[Youtracker]_by_AVP Studio.mkv
Формат : Matroska
Версия формата : Version 2
Размер файла : 745 Мбайт
Продолжительность : 1 ч. 24 м.
Общий поток : 1236 Кбит/сек
Дата кодирования : UTC 2013-10-06 14:54:04
Программа кодирования : mkvmerge v6.1.0 ('Old Devil') built on Mar 4 2013 09:10:42
Библиотека кодирования : libebml v1.3.0 + libmatroska v1.4.0
Видео
Идентификатор : 1
Формат : AVC
Формат/Информация : Advanced Video Codec
Профиль формата : High@L4.1
Параметр CABAC формата : Да
Параметр ReFrames формата : 6 кадров
Идентификатор кодека : V_MPEG4/ISO/AVC
Продолжительность : 1 ч. 24 м.
Битрейт : 1042 Кбит/сек
Ширина : 720 пикселей
Высота : 440 пикселей
Соотношение сторон : 2,35:1
Соотношение сторон в оригинале : 2,35:1
Частота кадров : 25,000 кадров/сек
Цветовое пространство : YUV
Субдискретизация насыщенности : 4:2:0
Битовая глубина : 8 бит
Тип развёртки : Прогрессивная
Бит/(Пиксели*Кадры) : 0.132
Размер потока : 614 Мбайт (82%)
Библиотека кодирования : x264 core 138 r2356 a1d3d17
Настройки программы : cabac=1 / ref=6 / deblock=1:-2:-1 / analyse=0x3:0x113 / me=umh / subme=10 / psy=1 / psy_rd=1.00:0.05 / mixed_ref=1 / me_range=32 / chroma_me=1 / trellis=2 / 8x8dct=1 / cqm=0 / deadzone=21,11 / fast_pskip=0 / chroma_qp_offset=-3 / threads=3 / lookahead_threads=1 / sliced_threads=0 / nr=0 / decimate=0 / interlaced=0 / bluray_compat=0 / constrained_intra=0 / bframes=8 / b_pyramid=2 / b_adapt=2 / b_bias=0 / direct=3 / weightb=1 / open_gop=0 / weightp=2 / keyint=240 / keyint_min=24 / scenecut=40 / intra_refresh=0 / rc_lookahead=40 / rc=2pass / mbtree=1 / bitrate=1042 / ratetol=1.0 / qcomp=0.60 / qpmin=0 / qpmax=69 / qpstep=4 / cplxblur=20.0 / qblur=0.5 / ip_ratio=1.40 / aq=1:1.00
Default : Да
Forced : Нет
Аудио
Идентификатор : 2
Формат : AC-3
Формат/Информация : Audio Coding 3
Расширение режима : CM (complete main)
Идентификатор кодека : A_AC3
Продолжительность : 1 ч. 24 м.
Вид битрейта : Постоянный
Битрейт : 192 Кбит/сек
Каналы : 2 канала
Расположение каналов : Front: L R
Частота : 48,0 КГц
Битовая глубина : 16 бит
Метод сжатия : С потерями
Размер потока : 116 Мбайт (16%)
Default : Да
Forced : Нет

Скриншоты

Фильмы трилогии

Возвращение «Святого Луки» (1970)
Чёрный принц (1973)
Версия полковника Зорина (1978)
[Профиль] [ЛС]
Показать сообщения:    

Текущее время: Сегодня 00:21

Часовой пояс: GMT



Вы не можете начинать темы
Вы не можете отвечать на сообщения
Вы не можете редактировать свои сообщения
Вы не можете удалять свои сообщения
Вы не можете голосовать в опросах
Вы не можете прикреплять файлы к сообщениям
Вы не можете скачивать файлы