Версаль / Versailles [S01] (2015) HDTV 720p | RedDiamond Studio

 
Автор Сообщение

достали все ®

Пол:

Стаж: 1 год 8 месяцев

Сообщений: 6598



Награды: 12 (Подробнее)

Top Releaser 2 (Количество: 1) Mega Seeder 5 (Количество: 1) Top Releaser 4 (Количество: 1)
Торрент-статистика

Создавать темы 03-Мар-2016 13:05

[Цитировать]

Название: Версаль
Оригинальное название: Versailles
Год выхода: 2015
Жанр: драма, биография, история
Режиссер: Дэниэл Роби, Кристоф Шреве, Жалиль Леспер
В ролях: Джордж Благден, Тай Рунян, Стюарт Боуман, Ивэн Уильямс, Джилли Гилкрист, Анатоль Таубман, Анна Коттис, Сара Винтер, Рафаэль Роджер Леви, Том Эйнсли и др.
О фильме: Людовик XIV взошел на престол, когда ему было 4 года. Многие годы Францией управлял совет министров, возглавляемый его матерью. Теперь она мертва и у знати с каждым днем все больше власти. Чтобы выжить, Людовику необходимо с чистого листа выстроить новую власть, вдалеке от Парижа. В деревушке под названием...Версаль.
Страна: Франция, Канада
Продолжительность: ~ 00:55:00
Перевод: Любительский (многоголосый закадровый) RedDiamond Studio
Субтитры: Русские (софтсаб)

Файл
Формат: MKV
Качество: HDTV 720p
Видео: 1280x720 (16:9), 25 fps, MPEG-4 AVC ~3173 kbps avg
Аудио RUS: 48 kHz, AC3, 5.1 ch, ~384 kbps avg
Аудио ENG: 48 kHz, AC3, 5.1 ch, ~384 kbps avg kbps avg

MediaInfo

Format : Matroska
Format version : Version 4 / Version 2
File size : 1.53 GiB
Duration : 54mn 21s
Overall bit rate : 4 021 Kbps
Encoded date : UTC 2015-12-03 08:34:41
Writing application : mkvmerge v8.5.0 ('Vanishing Act') 32bit
Writing library : libebml v1.3.1 + libmatroska v1.4.2
DURATION : 00:54:21.728000000
NUMBER_OF_FRAMES : 101929
NUMBER_OF_BYTES : 156562944
_STATISTICS_WRITING_APP : mkvmerge v8.5.0 ('Vanishing Act') 32bit
_STATISTICS_WRITING_DATE_UT : 2015-12-03 08:34:41
_STATISTICS_TAGS : BPS DURATION NUMBER_OF_FRAMES NUMBER_OF_BYTES
Video
ID : 1
Format : AVC
Format/Info : Advanced Video Codec
Format profile : High@L4.1
Format settings, CABAC : Yes
Format settings, ReFrames : 5 frames
Codec ID : V_MPEG4/ISO/AVC
Duration : 54mn 21s
Bit rate : 3 173 Kbps
Width : 1 280 pixels
Height : 720 pixels
Display aspect ratio : 16:9
Frame rate mode : Constant
Frame rate : 25.000 fps
Color space : YUV
Chroma subsampling : 4:2:0
Bit depth : 8 bits
Scan type : Progressive
Bits/(Pixel*Frame) : 0.138
Stream size : 1.21 GiB (79%)
Writing library : x264 core 148 r2597 e86f3a1
Encoding settings : opencl=1 / cabac=1 / ref=5 / deblock=1:0:0 / analyse=0x3:0x113 / me=umh / subme=8 / psy=1 / psy_rd=1.00:0.00 / mixed_ref=1 / me_range=16 / chroma_me=1 / trellis=1 / 8x8dct=1 / cqm=0 / deadzone=21,11 / fast_pskip=1 / chroma_qp_offset=-2 / threads=18 / lookahead_threads=3 / sliced_threads=0 / nr=0 / decimate=1 / interlaced=0 / bluray_compat=0 / constrained_intra=0 / bframes=3 / b_pyramid=2 / b_adapt=2 / b_bias=0 / direct=3 / weightb=1 / open_gop=0 / weightp=2 / keyint=250 / keyint_min=25 / scenecut=40 / intra_refresh=0 / rc_lookahead=50 / rc=crf / mbtree=1 / crf=18.0 / qcomp=0.60 / qpmin=0 / qpmax=69 / qpstep=4 / ip_ratio=1.40 / aq=1:1.00
Language : English
Default : Yes
Forced : No
Audio #1
ID : 2
Format : AC-3
Format/Info : Audio Coding 3
Mode extension : CM (complete main)
Format settings, Endianness : Big
Codec ID : A_AC3
Duration : 54mn 21s
Bit rate mode : Constant
Bit rate : 384 Kbps
Channel(s) : 6 channels
Channel positions : Front: L C R, Side: L R, LFE
Sampling rate : 48.0 KHz
Compression mode : Lossy
Stream size : 149 MiB (10%)
Language : Russian
Default : Yes
Forced : No
Audio #2
ID : 3
Format : AC-3
Format/Info : Audio Coding 3
Mode extension : CM (complete main)
Format settings, Endianness : Big
Codec ID : A_AC3
Duration : 54mn 21s
Bit rate mode : Constant
Bit rate : 384 Kbps
Channel(s) : 6 channels
Channel positions : Front: L C R, Side: L R, LFE
Sampling rate : 48.0 KHz
Compression mode : Lossy
Stream size : 149 MiB (10%)
Language : English
Default : No
Forced : No
Text
ID : 4
Format : UTF-8
Codec ID : S_TEXT/UTF8
Codec ID/Info : UTF-8 Plain Text
Language : Russian
Default : Yes
Forced : No

Скриншоты

[Профиль] [ЛС]
Кто просматривает тему:

Форум Тема Автор Размер
365 365: Мебель Версаля. От Короля-Солнце до Великой французской революции / Le Mobilier de Versailles. Du Roi-Soleil à la Révolution (Фабрис Урлье / Fabrice Hourlier) [2014 г., Документальный, история,... skorpionN 744 MB
Cистемные Утилиты Re-Loader v.1.2 FINAL by R@1n - Универсальный активатор (17/02/2015) MOTrOSS 326 MB
Cистемные Утилиты Re-Loader v.1.3 Alfa 6 by R@1n - Универсальный активатор MOTrOSS 332 MB
LiveCD System USB-Flash 10 v4.3 (Универсальное создание USB-накопителя) - Ubuntu x86, Windows XP SP3 x86, Windows 7 SP1 x86/x64, Windows 8.1 Update x86/x64, Драйвер-Паки для всех Windows (от 07.05.2015) MOTrOSS 31.19 GB
Viasat History Viasat History: Расцвет и упадок Версаля / Rise and Fall of Versailles [серии 1-3 из 3] (Серж Лалу, Поль Бурджес) [2008-2011 г.г., Документально-постановочный, биография, история, ... skorpionN 2.32 GB
Windows XP Windows XP Pro SP3 (x86) (Rus) by Viktor Kisel - Универсальный образ системного раздела для восстановления на любой компьютер. nickson-82 2.83 GB
Фильмы 2006-2008 года Версаль / Versailles (Пьер Шоллер / Pierre Schoeller) [2008, Франция, драма, DVB -> DVD] Original (Fre) + Sub (Rus, Eng, Fre, Deu) TorrentFilm 2.63 GB
Зарубежные сериалы Версаль / Versailles [01-10 из 10] (2015) HDTV 1080i от GeneralFilm | Первый Канал Russian Mafia 24.42 GB
Показать сообщения:    

Текущее время: Сегодня 11:55

Часовой пояс: GMT



Вы не можете начинать темы
Вы не можете отвечать на сообщения
Вы не можете редактировать свои сообщения
Вы не можете удалять свои сообщения
Вы не можете голосовать в опросах
Вы не можете прикреплять файлы к сообщениям
Вы не можете скачивать файлы