Верный Руслан / История караульной собаки (Владимир Хмельницкий) [1991, Драма, экранизация, DVB]

 
Автор Сообщение

reversefile ®

Пол:

Стаж: 4 года 5 месяцев

Сообщений: 842

Откуда: ReverseFile.org



Награды: Нет

Торрент-статистика

Создавать темы 25-Июл-2014 01:16

[Цитировать]

Верный Руслан / История караульной собаки
Жанр: Драма, экранизация
Год выпуска: 1991
Продолжительность: 1:40:52
Режиссёр: Владимир Хмельницкий
В ролях: Леонид Яновский, Лидия Федосеева-Шукшина, Евгений Никитин, Сергей Пожогин, Николай Сектименко
Описание: По одноименной повести Георгия Владимова.
"Руслан не винил хозяина, не упрекал его. Он уже был немолод и знал - хозяева иногда ошибаются. Но им это можно. Это нельзя собакам и лагерникам, которые всегда отвечают за свои ошибки, а часто и за ошибки хозяев. Он знал хорошо, что за это бывает, когда собака перестает понимать, что к чему. Тут не спасают никакие прежние заслуги. Впервые на его памяти это случилось с Рексом, весьма опытным и ревностным псом, любимцем хозяев, которому Руслан по молодости сильно завидовал."
Доп. информация: Производство: Украинский фонд культуры, Фест -Земля
Семпл: https://www.sendspace.com/file/3ygqj1
Качество видео: DVB
Формат видео: MPEG-PS
Видео: MPEG Video , 720x576(4:3), 25,000 кадров/сек, 4 876 Kbps
Аудио: MPEG Audio, 48,0 КГц, 192 Кбит/сек, 2 канала

MediaInfo

Complete name Верный Руслан 1991.mpg
Format : MPEG-PS
File size : 3.64 GiB
Duration : 1h 40mn
Overall bit rate mode : Variable
Overall bit rate : 5 171 Kbps
Video
ID : 224 (0xE0)
Format : MPEG Video
Format version : Version 2
Format profile : Main@Main
Format settings, BVOP : Yes
Format settings, Matrix : Default
Format settings, GOP : M=3, N=12
Duration : 1h 40mn
Bit rate mode : Variable
Bit rate : 4 876 Kbps
Maximum bit rate : 5 200 Kbps
Width : 720 pixels
Height : 576 pixels
Display aspect ratio : 4:3
Frame rate : 25.000 fps
Standard : PAL
Color space : YUV
Chroma subsampling : 4:2:0
Bit depth : 8 bits
Scan type : Progressive
Compression mode : Lossy
Bits/(Pixel*Frame) : 0.470
Time code of first frame : 00:00:00:00
Time code source : Group of pictures header
Stream size : 3.44 GiB (94%)
Audio
ID : 192 (0xC0)
Format : MPEG Audio
Format version : Version 1
Format profile : Layer 2
Duration : 1h 40mn
Bit rate mode : Constant
Bit rate : 192 Kbps
Channel(s) : 2 channels
Sampling rate : 48.0 KHz
Compression mode : Lossy
Stream size : 139 MiB (4%)

Скриншоты

[Профиль] [ЛС]

Создавать темы 06-Авг-2015 22:04 (спустя 1 год)

Топик был перенесен из форума Кино СССР в форум Кино СССР
sergej644
 
Кто просматривает тему:

Форум Тема Автор Размер
Документальные HD Альпы с высоты: Северные Альпы / Die Alpen von oben: Nordalpen (2011) BDRip 1080p sergej644 30.25 GB
Документальные HD Альпы с высоты: Северные Альпы / Die Alpen von oben: Nordalpen (Лиза Эдер / Lisa Eder, Кристиан Шидловски / Christian Schidlowski) [2011, Документальный, BDRip 720p] TorrentFilm 14.89 GB
Документальные HD Альпы с высоты: Северные Альпы / Die Alpen von oben: Nordalpen (Лиза Эдер / Lisa Eder, Кристиан Шидловски / Christian Schidlowski) [2011, Документальный, Blu-ray Disc 1080i (Custom)] TorrentFilm 44.45 GB
Сhanson Аркадий Северный - 100 лучших песен (2016) MP3 Russian Mafia 1014 MB
Фильмы (HD Rips | 720p, 1080p) Верные друзья (1954) BDRip 1080p от MediaClub sergej644 7.06 GB
Фильмы (HD Rips | 720p, 1080p) Верные друзья (1954) BDRip [720p] sergej644 5.37 GB
Фильмы (DVD 5/9) Верные друзья (Михаил Калатозов) [1954 г., Мелодрама, комедия, Blu-ray > DVD9 (Custom)] reversefile 7.81 GB
Фильмы (HD Rips | 720p, 1080p) Верные друзья (Михаил Калатозов) [1954, СССР, Мелодрама, комедия, BDRip 1080p] Original Rus reversefile 7.22 GB
Показать сообщения:    

Текущее время: Сегодня 06:18

Часовой пояс: GMT



Вы не можете начинать темы
Вы не можете отвечать на сообщения
Вы не можете редактировать свои сообщения
Вы не можете удалять свои сообщения
Вы не можете голосовать в опросах
Вы не можете прикреплять файлы к сообщениям
Вы не можете скачивать файлы