Верный Руслан / История караульной собаки (Владимир Хмельницкий) [1991, Драма, экранизация, SATRip]

 
Автор Сообщение

reversefile ®

Пол:

Стаж: 4 года 5 месяцев

Сообщений: 842

Откуда: ReverseFile.org



Награды: Нет

Торрент-статистика

Создавать темы 24-Июл-2014 17:58

[Цитировать]

Верный Руслан / История караульной собаки
Жанр: Драма, экранизация
Год выпуска: 1991
Продолжительность: 1:40:52
Режиссёр: Владимир Хмельницкий
В ролях: Леонид Яновский, Лидия Федосеева-Шукшина, Евгений Никитин, Сергей Пожогин, Николай Сектименко
Описание: По одноименной повести Георгия Владимова.
"Руслан не винил хозяина, не упрекал его. Он уже был немолод и знал - хозяева иногда ошибаются. Но им это можно. Это нельзя собакам и лагерникам, которые всегда отвечают за свои ошибки, а часто и за ошибки хозяев. Он знал хорошо, что за это бывает, когда собака перестает понимать, что к чему. Тут не спасают никакие прежние заслуги. Впервые на его памяти это случилось с Рексом, весьма опытным и ревностным псом, любимцем хозяев, которому Руслан по молодости сильно завидовал."
Доп. информация: Производство: Украинский фонд культуры, Фест -Земля
Семпл: https://www.sendspace.com/file/qvy93c
Качество видео: SATRip
Формат видео: AVI
Видео: XviD MPEG-4 , 704x528 (1.33:1) , 25 fps , 1863 kbps avg
Аудио: AC3 , 48 kHz , 192.00 kbps avg , 2/0 (L,R) ch

MediaInfo

Complete name Верный Руслан 1991.avi
Format : AVI
Format/Info : Audio Video Interleave
File size : 1.46 GiB
Duration : 1h 40mn
Overall bit rate : 2 065 Kbps
Writing library : VirtualDub build 35491/release
Video
ID : 0
Format : MPEG-4 Visual
Format profile : Advanced Simple@L5
Format settings, BVOP : 2
Format settings, QPel : No
Format settings, GMC : No warppoints
Format settings, Matrix : Default (H.263)
Codec ID : XVID
Codec ID/Hint : XviD
Duration : 1h 40mn
Bit rate : 1 863 Kbps
Width : 704 pixels
Height : 528 pixels
Display aspect ratio : 4:3
Frame rate : 25.000 fps
Color space : YUV
Chroma subsampling : 4:2:0
Bit depth : 8 bits
Scan type : Progressive
Compression mode : Lossy
Bits/(Pixel*Frame) : 0.201
Stream size : 1.31 GiB (90%)
Writing library : XviD 1.2.1 (UTC 2008-12-04)
Audio
ID : 1
Format : AC-3
Format/Info : Audio Coding 3
Mode extension : CM (complete main)
Format settings, Endianness : Big
Codec ID : 2000
Duration : 1h 40mn
Bit rate mode : Constant
Bit rate : 192 Kbps
Channel(s) : 2 channels
Channel positions : Front: L R
Sampling rate : 48.0 KHz
Bit depth : 16 bits
Compression mode : Lossy
Stream size : 139 MiB (9%)
Alignment : Aligned on interleaves
Interleave, duration : 40 ms (1.00 video frame)
Interleave, preload duration : 512 ms

Скриншоты

[Профиль] [ЛС]

Создавать темы 06-Авг-2015 22:06 (спустя 1 год)

Топик был перенесен из форума Кино СССР в форум Кино СССР
sergej644
 
Кто просматривает тему:

Форум Тема Автор Размер
Документальные HD Альпы с высоты: Северные Альпы / Die Alpen von oben: Nordalpen (2011) BDRip 1080p sergej644 30.25 GB
Документальные HD Альпы с высоты: Северные Альпы / Die Alpen von oben: Nordalpen (Лиза Эдер / Lisa Eder, Кристиан Шидловски / Christian Schidlowski) [2011, Документальный, BDRip 720p] TorrentFilm 14.89 GB
Документальные HD Альпы с высоты: Северные Альпы / Die Alpen von oben: Nordalpen (Лиза Эдер / Lisa Eder, Кристиан Шидловски / Christian Schidlowski) [2011, Документальный, Blu-ray Disc 1080i (Custom)] TorrentFilm 44.45 GB
Сhanson Аркадий Северный - 100 лучших песен (2016) MP3 Russian Mafia 1014 MB
Фильмы (HD Rips | 720p, 1080p) Верные друзья (1954) BDRip 1080p от MediaClub sergej644 7.06 GB
Фильмы (HD Rips | 720p, 1080p) Верные друзья (1954) BDRip [720p] sergej644 5.37 GB
Фильмы (DVD 5/9) Верные друзья (Михаил Калатозов) [1954 г., Мелодрама, комедия, Blu-ray > DVD9 (Custom)] reversefile 7.81 GB
Фильмы (HD Rips | 720p, 1080p) Верные друзья (Михаил Калатозов) [1954, СССР, Мелодрама, комедия, BDRip 1080p] Original Rus reversefile 7.22 GB
Показать сообщения:    

Текущее время: Сегодня 10:15

Часовой пояс: GMT



Вы не можете начинать темы
Вы не можете отвечать на сообщения
Вы не можете редактировать свои сообщения
Вы не можете удалять свои сообщения
Вы не можете голосовать в опросах
Вы не можете прикреплять файлы к сообщениям
Вы не можете скачивать файлы