Верные друзья (1954) BDRip 1080p от MediaClub

 
Автор Сообщение

sergej644 ®

Пол:

Стаж: 4 года 11 месяцев

Сообщений: 6046

Откуда: Soviet Union



Награды: Нет

Торрент-статистика

Создавать темы 28-Янв-2015 18:54

[Цитировать]

Информация о фильме
Оригинальное название: Верные друзья
Год выпуска: 1954
Жанр: Мелодрама, комедия
Режиссер: Михаил Калатозов
В ролях: Василий Меркурьев, Борис Чирков, Александр Борисов, Алексей Грибов, Лилия Гриценко, Людмила Шагалова, Алексей Покровский, Юрий Саранцев, Георгий Георгиу, Николай Сморчков, Михаил Пуговкин, Григорий Белов, Георгий Гумилевский, Елена Вольская, Вера Бурлакова, Людмила Геника-Чиркова, Анатолий Дудоров, Маргарита Жарова, Константин Нассонов, Александр Лебедев, Ольга Маркина, Владимир Лепко, Елена Савицкая, Клавдия Козлёнкова, Лариса Матвеенко, Елизавета Уварова, Юрий Леонидов, Василий Корнуков, Иван Косых, Пётр Любешкин, Георгий Бударов, Иван Рыжов, Николай Парфёнов, Владимир Андреев, Зоя Степанова, Иван Кузнецов, Сергей Юртайкин, Всеволод Санаев, Александр Жуков, Владимир Ратомский, Алевтина Румянцева
Описание: Когда-то давно на одной из московских окраин жили три товарища: Сашка-«кошачий барин», Борька — «чижик» и Васька — «индюк». Прошли годы. Чижик стал известным московским хирургом Чижовым, Сашка — профессором-животноводом Лапиным, Васька — академиком архитектуры Нестратовым, работающим на строительстве первых высоток столицы. Вспомнив данное когда-то друг другу обещание, верные друзья отправляются в плавание по реке на бревенчатом плоту. Для Лапина путешествие оказывается особенно счастливым: он встречает давно любимую и любящую его женщину.

Страна: СССР
Студия: Мосфильм
Продолжительность: 01:40:29
Файл
Качество: BDRip 1080p
Видео: MPEG-4 AVC, 8100 Кбит/с, 1488x1080, 23.976 кадр/с
Аудио #1: Русский (DTS, 6 ch, 1509 Кбит/с)
Аудио #2: Русский (AC3, 6 ch, 448 Кбит/с)
Семпл

Скриншоты



MI

x264 [info]: frame I:743 Avg QP:16.82 size:151265
x264 [info]: frame P:32648 Avg QP:19.29 size: 83851
x264 [info]: frame B:111176 Avg QP:20.83 size: 29278
x264 [info]: consecutive B-frames: 2.5% 2.6% 12.0% 14.1% 13.4% 51.6% 3.3% 0.1% 0.4%
************************************************************************************************
Общее
Уникальный идентификатор : 208179989827506289093098753667565060165 (0x9C9E01F3966FB8ED905CBCFD0F6F8045)
Полное имя : D:Mои раздачиVernye.druzjya.1954.BDRip.1080p-MediaClub.mkv
Формат : Matroska
Версия формата : Version 4 / Version 2
Размер файла : 7,06 Гбайт
Продолжительность : 1 ч. 40 м.
Общий поток : 10,1 Мбит/сек
Название фильма : -=MediaClub-kaspr=-
Дата кодирования : UTC 2014-04-07 11:56:47
Программа кодирования : mkvmerge v6.1.0 ('Old Devil') built on Mar 4 2013 09:10:42
Библиотека кодирования : libebml v1.3.0 + libmatroska v1.4.0
Видео
Идентификатор : 1
Формат : AVC
Формат/Информация : Advanced Video Codec
Профиль формата : High@L4.1
Параметр CABAC формата : Да
Параметр ReFrames формата : 4 кадра
Идентификатор кодека : V_MPEG4/ISO/AVC
Продолжительность : 1 ч. 40 м.
Битрейт : 8100 Кбит/сек
Ширина : 1488 пикселей
Высота : 1080 пикселей
Соотношение сторон : 1,378
Режим частоты кадров : Постоянный
Частота кадров : 23,976 кадра/сек
Цветовое пространство : YUV
Субдискретизация насыщенности : 4:2:0
Битовая глубина : 8 бит
Тип развёртки : Прогрессивная
Бит/(Пиксели*Кадры) : 0.210
Размер потока : 5,55 Гбайт (79%)
Заголовок : -=MediaClub-kaspr=-
Библиотека кодирования : x264 core 142 r2409+42 04be48a tMod [8-bit@4:2:0 X86_64]
Настройки программы : cabac=1 / ref=4 / deblock=1:-3:-3 / analyse=0x3:0x113 / me=umh / subme=11 / psy=1 / fade_compensate=0.00 / psy_rd=1.00:0.20 / mixed_ref=1 / me_range=32 / chroma_me=1 / trellis=2 / 8x8dct=1 / cqm=0 / deadzone=21,11 / fast_pskip=0 / chroma_qp_offset=-3 / threads=12 / lookahead_threads=2 / sliced_threads=0 / nr=0 / decimate=0 / interlaced=0 / bluray_compat=0 / constrained_intra=0 / fgo=0 / bframes=8 / b_pyramid=2 / b_adapt=2 / b_bias=0 / direct=3 / weightb=1 / open_gop=0 / weightp=2 / keyint=240 / keyint_min=23 / scenecut=40 / intra_refresh=0 / rc=2pass / mbtree=0 / bitrate=8100 / ratetol=1.0 / qcomp=0.60 / qpmin=0:0:0 / qpmax=69:69:69 / qpstep=4 / cplxblur=20.0 / qblur=0.5 / ip_ratio=1.40 / pb_ratio=1.30 / aq=2:1.00 / aq-sensitivity=10.00 / aq-factor=1.00:1.00:1.00 / aq2=0 / aq3=0
Default : Да
Forced : Да
Аудио #1
Идентификатор : 2
Формат : DTS
Формат/Информация : Digital Theater Systems
Режим : 16
Параметр Endianness формата : Big
Идентификатор кодека : A_DTS
Продолжительность : 1 ч. 40 м.
Вид битрейта : Постоянный
Битрейт : 1509 Кбит/сек
Каналы : 6 каналов
Расположение каналов : Front: L C R, Side: L R, LFE
Частота : 48,0 КГц
Битовая глубина : 24 бит
Метод сжатия : С потерями
Размер потока : 1,06 Гбайт (15%)
Заголовок : DTS
Язык : Russian
Default : Да
Forced : Да
Аудио #2
Идентификатор : 3
Формат : AC-3
Формат/Информация : Audio Coding 3
Расширение режима : CM (complete main)
Параметр Endianness формата : Big
Идентификатор кодека : A_AC3
Продолжительность : 1 ч. 40 м.
Вид битрейта : Постоянный
Битрейт : 448 Кбит/сек
Каналы : 6 каналов
Расположение каналов : Front: L C R, Side: L R, LFE
Частота : 48,0 КГц
Битовая глубина : 16 бит
Метод сжатия : С потерями
Размер потока : 322 Мбайт (4%)
Заголовок : AC3
Язык : Russian
Default : Нет
Forced : Нет
Меню
00:00:00.000 : en:Chapter 01
00:04:01.241 : en:Chapter 02
00:11:19.679 : en:Chapter 03
00:17:51.070 : en:Chapter 04
00:25:29.527 : en:Chapter 05
00:32:31.950 : en:Chapter 06
00:40:18.416 : en:Chapter 07
00:50:31.153 : en:Chapter 08
00:59:15.760 : en:Chapter 09
01:06:54.010 : en:Chapter 10
01:17:13.629 : en:Chapter 11
01:25:56.901 : en:Chapter 12
01:29:44.504 : en:Chapter 13
01:35:05.491 : en:Chapter 14
--
[Профиль] [ЛС]
Кто просматривает тему:

Форум Тема Автор Размер
Документальные HD Альпы с высоты: Северные Альпы / Die Alpen von oben: Nordalpen (2011) BDRip 1080p sergej644 30.25 GB
Документальные HD Альпы с высоты: Северные Альпы / Die Alpen von oben: Nordalpen (Лиза Эдер / Lisa Eder, Кристиан Шидловски / Christian Schidlowski) [2011, Документальный, BDRip 720p] TorrentFilm 14.89 GB
Документальные HD Альпы с высоты: Северные Альпы / Die Alpen von oben: Nordalpen (Лиза Эдер / Lisa Eder, Кристиан Шидловски / Christian Schidlowski) [2011, Документальный, Blu-ray Disc 1080i (Custom)] TorrentFilm 44.45 GB
Сhanson Аркадий Северный - 100 лучших песен (2016) MP3 Russian Mafia 1014 MB
Фильмы (HD Rips | 720p, 1080p) Верные друзья (1954) BDRip [720p] sergej644 5.37 GB
Фильмы (DVD 5/9) Верные друзья (Михаил Калатозов) [1954 г., Мелодрама, комедия, Blu-ray > DVD9 (Custom)] reversefile 7.81 GB
Фильмы (HD Rips | 720p, 1080p) Верные друзья (Михаил Калатозов) [1954, СССР, Мелодрама, комедия, BDRip 1080p] Original Rus reversefile 7.22 GB
Фильмы (DVD 5/9) Верные друзья (Михаил Калатозов) [1954, СССР, Мелодрама, комедия, Blu ray > DVD5 (Custom)] + Original Rus (AC3 5.1;AC3 1.0) reversefile 4.3 GB
Показать сообщения:    

Текущее время: Сегодня 04:31

Часовой пояс: GMT



Вы не можете начинать темы
Вы не можете отвечать на сообщения
Вы не можете редактировать свои сообщения
Вы не можете удалять свои сообщения
Вы не можете голосовать в опросах
Вы не можете прикреплять файлы к сообщениям
Вы не можете скачивать файлы