Верные друзья (1954) BDRip [720p]

 
Автор Сообщение

sergej644 ®

Пол:

Стаж: 4 года 11 месяцев

Сообщений: 6046

Откуда: Soviet Union



Награды: Нет

Торрент-статистика

Создавать темы 24-Июл-2014 19:57

[Цитировать]

-Верные друзья (1954) BDRip [720p]- Производство: СССР
Год выпуска: 1954
Жанр: Мелодрама, Комедия-Режиссер: Михаил Калатозов
Сценарий: Александр Галич, Константин Исаев
Актеры: Василий Меркурьев, Борис Чирков, Александр Борисов, Алексей Грибов, Лилия Гриценко, Людмила Шагалова, Алексей Покровский, Юрий Саранцев, Николай Сморчков, Георгий Георгиу, Михаил Пуговкин, Григорий Белов-Описание фильма: Когда-то давно на одной из московских окраин жили три товарища: Сашка - «кошачий парень», Борька - «чижик» и Васька - «индюк». Прошли годы. Чижик стал известным московским хирургом Чижовым, Сашка - профессором-животноводом Лапиным, Васька - академиком архитектуры Нестратовым, работающим на строительстве первых высоток столицы. Вспомнив данное когда-то друг другу обещание, верные друзья отправляются в плавание по реке на бревенчатом плоту. Для Лапина путешествие оказывается особенно счастливым: он встречает давно любимую и любящую его женщину.- -Производство: Мосфильм
Дата мировой премьеры: 20 апреля 1954
Релиз на DVD: 11 января 2011
Релиз на Blu-Ray: 5 апреля 2014-Перевод: Оригинал
Язык субтитров: Отсутствуют
Продолжительность: 01:40:30
Возраст 0+: Для любой зрительской аудитории-Качество видео: BDRip [720p]
Формат: MKV
Видео: MPEG-4 AVC/H.264, 7000 Kbps, 992 x 720
Аудио: Русский AC3 5.1, 640 Kbps, 48.0 KHz-

Blu-ray

MediaInfo

Общее
Полное имя : Верные друзья.mkv
Формат : Matroska
Версия формата : Version 1
Размер файла : 5,37 Гбайт
Продолжительность : 1 ч. 40 м.
Общий поток : 7644 Кбит/сек
Дата кодирования : UTC 2014-04-07 13:39:41
Программа кодирования : mkvmerge v2.4.1 ('Use Me') built on Dec 5 2008 18:30:05
Библиотека кодирования : libebml v0.7.7 + libmatroska v0.8.1
Видео
Идентификатор : 1
Формат : AVC
Формат/Информация : Advanced Video Codec
Профиль формата : [url=mailto:High@L4.1]High@L4.1[/url]
Параметр CABAC формата : Да
Параметр ReFrames формата : 10 кадров
Идентификатор кодека : V_MPEG4/ISO/AVC
Продолжительность : 1 ч. 40 м.
Битрейт : 7000 Кбит/сек
Ширина : 992 пикселя
Высота : 720 пикселей
Соотношение сторон : 1,378
Режим частоты кадров : Постоянный
Частота кадров : 23,976 кадра/сек
Цветовое пространство : YUV
Субдискретизация насыщенности : 4:2:0
Битовая глубина : 8 бит
Тип развёртки : Прогрессивная
Бит/(Пиксели*Кадры) : 0.409
Размер потока : 4,81 Гбайт (90%)
Заголовок : Верные друзья (1954)
Библиотека кодирования : x264 core 138 r2358 9e941d1
Настройки программы : cabac=1 / ref=10 / deblock=1:-3:-3 / analyse=0x3:0x133 / me=umh / subme=10 / psy=1 / psy_rd=1.00:0.10 / mixed_ref=1 / me_range=48 / chroma_me=1 / trellis=2 / 8x8dct=1 / cqm=0 / deadzone=21,11 / fast_pskip=0 / chroma_qp_offset=-3 / threads=6 / lookahead_threads=1 / sliced_threads=0 / nr=0 / decimate=1 / interlaced=0 / bluray_compat=0 / constrained_intra=0 / bframes=5 / b_pyramid=2 / b_adapt=2 / b_bias=0 / direct=3 / weightb=1 / open_gop=0 / weightp=2 / keyint=240 / keyint_min=22 / scenecut=40 / intra_refresh=0 / rc_lookahead=40 / rc=2pass / mbtree=1 / bitrate=7000 / ratetol=1.0 / qcomp=0.60 / qpmin=10 / qpmax=51 / qpstep=4 / cplxblur=20.0 / qblur=0.5 / ip_ratio=1.40 / aq=1:1.00
Язык : Russian
Аудио
Идентификатор : 2
Формат : AC-3
Формат/Информация : Audio Coding 3
Расширение режима : CM (complete main)
Параметр Endianness формата : Big
Идентификатор кодека : A_AC3
Продолжительность : 1 ч. 40 м.
Вид битрейта : Постоянный
Битрейт : 640 Кбит/сек
Каналы : 6 каналов
Расположение каналов : Front: L C R, Side: L R, LFE
Частота : 48,0 КГц
Битовая глубина : 16 бит
Метод сжатия : С потерями
Размер потока : 460 Мбайт (8%)
Заголовок : AC3 (Оригинал)
Язык : Russian
-Скриншоты:
[Профиль] [ЛС]

Создавать темы 06-Авг-2015 22:05 (спустя 1 год)

Топик был перенесен из форума Кино СССР в форум Фильмы (HD Rips | 720p, 1080p)
sergej644
 
Кто просматривает тему:

Форум Тема Автор Размер
Документальные HD Альпы с высоты: Северные Альпы / Die Alpen von oben: Nordalpen (2011) BDRip 1080p sergej644 30.25 GB
Документальные HD Альпы с высоты: Северные Альпы / Die Alpen von oben: Nordalpen (Лиза Эдер / Lisa Eder, Кристиан Шидловски / Christian Schidlowski) [2011, Документальный, BDRip 720p] TorrentFilm 14.89 GB
Документальные HD Альпы с высоты: Северные Альпы / Die Alpen von oben: Nordalpen (Лиза Эдер / Lisa Eder, Кристиан Шидловски / Christian Schidlowski) [2011, Документальный, Blu-ray Disc 1080i (Custom)] TorrentFilm 44.45 GB
Сhanson Аркадий Северный - 100 лучших песен (2016) MP3 Russian Mafia 1014 MB
Фильмы (HD Rips | 720p, 1080p) Верные друзья (1954) BDRip 1080p от MediaClub sergej644 7.06 GB
Фильмы (DVD 5/9) Верные друзья (Михаил Калатозов) [1954 г., Мелодрама, комедия, Blu-ray > DVD9 (Custom)] reversefile 7.81 GB
Фильмы (HD Rips | 720p, 1080p) Верные друзья (Михаил Калатозов) [1954, СССР, Мелодрама, комедия, BDRip 1080p] Original Rus reversefile 7.22 GB
Фильмы (DVD 5/9) Верные друзья (Михаил Калатозов) [1954, СССР, Мелодрама, комедия, Blu ray > DVD5 (Custom)] + Original Rus (AC3 5.1;AC3 1.0) reversefile 4.3 GB
Показать сообщения:    

Текущее время: Сегодня 13:51

Часовой пояс: GMT



Вы не можете начинать темы
Вы не можете отвечать на сообщения
Вы не можете редактировать свои сообщения
Вы не можете удалять свои сообщения
Вы не можете голосовать в опросах
Вы не можете прикреплять файлы к сообщениям
Вы не можете скачивать файлы