Верни меня (2015) SATRip (серии 1-4 из 4)

 
Автор Сообщение

достали все ®

Пол:

Стаж: 1 год 8 месяцев

Сообщений: 6630



Награды: 12 (Подробнее)

Mega Releaser 1 (Количество: 1) Top Releaser 4 (Количество: 1) За внесенный вклад в развитие сайта (Количество: 1)
Торрент-статистика

Создавать темы 30-Май-2015 17:44

[Цитировать]

-Верни меня (2015) SATRip (серии 1-4 из 4)- Производство: Россия, Медиапрофсоюз
Жанр: мелодрама
Режиссер: Александр Ефремов
Актеры: Алиса Признякова, Юрий Кузнецов-Таёжный, Иван Мулин, Ирина Шевчук, Валерия Арланова, Елена Побегаева, Марта Голубева, Ксения Малахвейчук, Андрей Карако, Анастасия Шпаковская, Елена Дубровская, Анатолий Голуб, Наталья Капитонова, Александр Бранкевич, Лариса Маршалова, Олег Ткачёв, Сергей Власов, Андрей Душечкин и др.
Описание:
Жизнь Эллы Вавиловой похожа на сказку. Она счастливая жена и мать. И к тому же, занимается любимым делом — пишет романы, которые с охотой покупают московские издательства. Все меняется, когда Элла застает своего мужа, бизнесмена Антона Вавилова, с молодой любовницей. Антон не только не сожалеет о своем поступке, но и выставляет Эллу из дома, лишив ее средств к существованию. Взрослая дочь Настя как раз в это время на отдыхе за границей и не может помочь маме. В итоге, героиня вынуждена вернуться в маленький городок, откуда она родом. Там Элла временно поселяется у подруги Ленки, которая живет с взрослым сыном Колей. Жизнь Эллы начинает постепенно налаживаться, но тут неожиданно между Колей и Эллой вспыхивает любовь. Весь мир против влюбленных. «Двадцать лет разницы — это критично!» — твердят друзья и родственники. Под давлением обстоятельств влюбленные расстаются. Но, как говорится, сердцу не прикажешь…

Дата премьеры в РФ: 30 мая 2015
Продолжительность: ~ 00:45:00 серия
Качество видео: SATRip
Видео: XviD, 720x400 (16:9), ~1800 kb/s
Аудио: MPEG Layer 3, 2 ch 128 kb/s, CBR

MediaInfo:

Общее
Полное имя : D:\Верни меня (2015) SATRip\Verni.menja.01.seria.2015.SATRip.avi
Формат : AVI
Формат/Информация : Audio Video Interleave
Размер файла : 565 Мбайт
Продолжительность : 40 м.
Общий поток : 1938 Кбит/сек
Программа кодирования : VirtualDubMod 1.5.10.3 | www.virtualdub-fr.org || (build 2550/release)
Библиотека кодирования : VirtualDubMod build 2550/release
Видео
Идентификатор : 0
Формат : MPEG-4 Visual
Профиль формата : Advanced Simple@L5
Параметр BVOP формата : 2
Параметр QPel формата : Нет
Параметр GMC формата : Без точки перехода
Параметр матрицы формата : Default (MPEG)
Идентификатор кодека : XVID
Идентификатор кодека/Подсказка : XviD
Продолжительность : 40 м.
Битрейт : 1800 Кбит/сек
Ширина : 720 пикселей
Высота : 400 пикселей
Соотношение сторон : 16:9
Частота кадров : 25,000 кадров/сек
Цветовое пространство : YUV
Субдискретизация насыщенности : 4:2:0
Битовая глубина : 8 бит
Тип развёртки : Прогрессивная
Метод сжатия : С потерями
Бит/(Пиксели*Кадры) : 0.250
Размер потока : 525 Мбайт (93%)
Библиотека кодирования : XviD 1.2.1 (UTC 2008-12-04)
Аудио
Идентификатор : 1
Формат : MPEG Audio
Версия формата : Version 1
Профиль формата : Layer 3
Режим : Joint stereo
Расширение режима : MS Stereo
Идентификатор кодека : 55
Идентификатор кодека/Подсказка : MP3
Продолжительность : 40 м.
Вид битрейта : Постоянный
Битрейт : 128 Кбит/сек
Каналы : 2 канала
Частота : 48,0 КГц
Метод сжатия : С потерями
Размер потока : 37,3 Мбайт (7%)
Выравнивание : Соединение по промежуткам
Продолжительность промежутка : 40 мс. (1,00 видеокадр)
Время предзагрузки промежутка : 504 мс.
Библиотека кодирования : LAME3.99r
Настройки программы : -m j -V 4 -q 9 -lowpass 17 -b 128
Скриншоты:
[Профиль] [ЛС]
Показать сообщения:    

Текущее время: Сегодня 14:05

Часовой пояс: GMT



Вы не можете начинать темы
Вы не можете отвечать на сообщения
Вы не можете редактировать свои сообщения
Вы не можете удалять свои сообщения
Вы не можете голосовать в опросах
Вы не можете прикреплять файлы к сообщениям
Вы не можете скачивать файлы