Венсан, Франсуа, Поль и другие / Vincent, Francois, Paul... et les autres (1974) BDRip 720p by msltel | P2

 
Автор Сообщение

sergej644 ®

Пол:

Стаж: 4 года 11 месяцев

Сообщений: 6042

Откуда: Soviet Union



Награды: Нет

Торрент-статистика

Создавать темы 13-Фев-2015 22:21

[Цитировать]

Год выпуска: 1974
Страна: Франция, Италия
Жанр: драма
Продолжительность: 01:53:55
Перевод: профессиональный двухголосый
Субтитры: нет
Режиссёр: Клод Соте
В ролях: Ив Монтан, Мишель Пикколи, Серж Реджани, Жерар Депардьё, Стефан Одран, Мари Дюбуа, Антонелла Луальди, Умберто Орсини, Людмила Микаэль, Катрин Аллегре, Бетти Беккерс, Ив Габриелли, Жак Ришар, Дэвид Тонелли, Николя Фогель, Жан-Дениз Робер, Мириам Бойер, Даниэль Лекуртуа, Пьер Маглон, Морис Озель
Описание: Их четверо друзей, и они каждый выходной собираются вместе, чтобы обсудить свои проблемы: банкир Венсан, медик Франсуа, писатель Поль и боксёр Жан. А проблем-то полным полно. Венсан, Франсуа и Поль испытывают кризис середины жизни. Венсан разорился, теперь он должен кучу денег, его любовница бросает его, а жена требует развода. У Франсуа происходит крушение его идеалов — его платная клиника далеко не преуспевает, а его жена изменяет ему с разными мужчинами. У Поля тоже дела не идут — его книги не издаются. Четвёртый друг Жан молод, он как сын Венсану, неплохой боксёр, но и у него тоже проблемы: его подруга беременна, и они испытывают трудности. Для того чтобы как-то выйти из положения, Жан соглашается на бой с очень серьёзным противником...

Качество: BDRip 720p
Формат: MKV
Видео кодек: H.264
Видео: 7141 Кбит/с, 1194x720, 24 кадра/с, 0.346 bpp
Аудио 1: русский, AC3, 192 kbps, 2 ch, 48 kHz [профессиональный двухголосый]
Аудио 2: французский, AC3, 192 kbps, 2 ch, 48 kHz [оригинал]
Имеются неименованные главы/чаптеры.

MediaInfo

Общее
Уникальный идентификатор : 205234031323661904391514483632778191817 (0x9A66A2FBB6D9EC5D9705D3FD5A3B23C9)
Полное имя : D:VideoVensan, Fransua....1974.BDRip.720p.mkv
Формат : Matroska
Версия формата : Version 4 / Version 2
Размер файла : 6,11 Гбайт
Продолжительность : 1 ч. 53 м.
Общий поток : 7677 Кбит/сек
Дата кодирования : UTC 2015-02-10 09:39:53
Программа кодирования : mkvmerge v7.6.0 ('Garden of Dreams') 64bit built on Feb 8 2015 13:04:34
Библиотека кодирования : libebml v1.3.1 + libmatroska v1.4.2
DURATION : 01:53:56.000000000
NUMBER_OF_FRAMES : 213625
NUMBER_OF_BYTES : 164064000
_STATISTICS_WRITING_APP : mkvmerge v7.6.0 ('Garden of Dreams') 64bit built on Feb 8 2015 13:04:34
_STATISTICS_WRITING_DATE_UTC : 2015-02-10 09:39:53
_STATISTICS_TAGS : BPS DURATION NUMBER_OF_FRAMES NUMBER_OF_BYTES
Видео
Идентификатор : 1
Формат : AVC
Формат/Информация : Advanced Video Codec
Профиль формата : High@L4.1
Параметр CABAC формата : Да
Параметр ReFrames формата : 9 кадров
Идентификатор кодека : V_MPEG4/ISO/AVC
Продолжительность : 1 ч. 53 м.
Битрейт : 7141 Кбит/сек
Ширина : 1194 пикселя
Высота : 720 пикселей
Соотношение сторон : 1,658
Режим частоты кадров : Постоянный
Частота кадров : 24,000 кадра/сек
Цветовое пространство : YUV
Субдискретизация насыщенности : 4:2:0
Битовая глубина : 8 бит
Тип развёртки : Прогрессивная
Бит/(Пиксели*Кадры) : 0.346
Размер потока : 5,68 Гбайт (93%)
Заголовок : BDRip -- STarankov
Библиотека кодирования : x264 core 142 r2431 ac76440
Настройки программы : cabac=1 / ref=9 / deblock=1:-1:-1 / analyse=0x3:0x113 / me=umh / subme=10 / psy=1 / psy_rd=1.00:0.15 / mixed_ref=1 / me_range=32 / chroma_me=1 / trellis=2 / 8x8dct=1 / cqm=0 / deadzone=21,11 / fast_pskip=1 / chroma_qp_offset=-3 / threads=6 / lookahead_threads=1 / sliced_threads=0 / nr=0 / decimate=1 / interlaced=0 / bluray_compat=0 / constrained_intra=0 / bframes=8 / b_pyramid=2 / b_adapt=2 / b_bias=0 / direct=3 / weightb=1 / open_gop=0 / weightp=2 / keyint=230 / keyint_min=23 / scenecut=40 / intra_refresh=0 / rc_lookahead=40 / rc=crf / mbtree=0 / crf=19.8 / qcomp=0.60 / qpmin=0 / qpmax=69 / qpstep=4 / vbv_maxrate=40000 / vbv_bufsize=50000 / crf_max=0.0 / nal_hrd=none / filler=0 / ip_ratio=1.40 / pb_ratio=1.30 / aq=1:1.00
Язык : French
Default : Да
Forced : Нет
DURATION : 01:53:55.959000000
NUMBER_OF_FRAMES : 164063
NUMBER_OF_BYTES : 6230298828
_STATISTICS_WRITING_APP : mkvmerge v7.6.0 ('Garden of Dreams') 64bit built on Feb 8 2015 13:04:34
_STATISTICS_WRITING_DATE_UTC : 2015-02-10 09:39:53
_STATISTICS_TAGS : BPS DURATION NUMBER_OF_FRAMES NUMBER_OF_BYTES
Аудио #1
Идентификатор : 2
Формат : AC-3
Формат/Информация : Audio Coding 3
Расширение режима : CM (complete main)
Параметр Endianness формата : Big
Идентификатор кодека : A_AC3
Продолжительность : 1 ч. 53 м.
Вид битрейта : Постоянный
Битрейт : 192 Кбит/сек
Каналы : 2 канала
Расположение каналов : Front: L R
Частота : 48,0 КГц
Битовая глубина : 16 бит
Метод сжатия : С потерями
Размер потока : 156 Мбайт (3%)
Заголовок : MVO
Язык : Russian
Default : Да
Forced : Нет
Аудио #2
Идентификатор : 3
Формат : AC-3
Формат/Информация : Audio Coding 3
Расширение режима : CM (complete main)
Параметр Endianness формата : Big
Идентификатор кодека : A_AC3
Продолжительность : 1 ч. 53 м.
Вид битрейта : Постоянный
Битрейт : 192 Кбит/сек
Каналы : 2 канала
Расположение каналов : Front: L R
Частота : 48,0 КГц
Битовая глубина : 16 бит
Метод сжатия : С потерями
Размер потока : 156 Мбайт (3%)
Заголовок : Original
Язык : French
Default : Нет
Forced : Нет
Меню
00:00:00.000 : :Chapter 01
00:02:30.916 : :Chapter 02
00:11:35.708 : :Chapter 03
00:18:38.500 : :Chapter 04
00:24:34.708 : :Chapter 05
00:31:09.833 : :Chapter 06
00:37:53.875 : :Chapter 07
00:45:15.666 : :Chapter 08
00:57:24.250 : :Chapter 09
01:12:33.207 : :Chapter 10
01:30:10.375 : :Chapter 11
01:49:07.000 : :Chapter 12

Скриншоты


[Профиль] [ЛС]
Показать сообщения:    

Текущее время: Сегодня 08:52

Часовой пояс: GMT



Вы не можете начинать темы
Вы не можете отвечать на сообщения
Вы не можете редактировать свои сообщения
Вы не можете удалять свои сообщения
Вы не можете голосовать в опросах
Вы не можете прикреплять файлы к сообщениям
Вы не можете скачивать файлы