Великолепный / Gorgeous / Boh lee chun (1999) BDRip от New-Team | P

 
Автор Сообщение

sergej644 ®

Пол:

Стаж: 4 года 11 месяцев

Сообщений: 6041

Откуда: Soviet Union



Награды: Нет

Торрент-статистика

Создавать темы 18-Дек-2014 18:28

[Цитировать]

--Великолепный / Gorgeous / Boh lee chun- Страна: Гонконг, Тайвань
Жанр: мелодрама, комедия, боевик
Год выпуска: 1999
Продолжительность: 01:59:37
Перевод: Профессиональный (многоголосый закадровый) ОРТ / Первый Канал со вставками AVO Кашкина
Оригинальная аудиодорожка: нет
Cубтитры: нет
Режиссер: Винсент Кок / Vincent Kok
В ролях: Джеки Чан, Шу Ци, Тони Люн Чу Вай, Эмиль Чау, Ричи Рен, Кен Ло, Санг Янг Чен, Илэйн Цзинь, Брэдли Джеймс Аллан, Тац Лау
Описание: Знаменитый мастер восточных единоборств Джеки Чан вновь демонстрирует свою непревзойденную технику и виртуозные трюки в этом великолепном романтическом боевике. Несравненная Бу, девушка из маленькой деревни на берегу океана, приезжает в шумный Гонконг в поисках приключений. Здесь она знакомиться с Ченом — знаменитым миллионером. Но романтическая Золушка не подозревает, что Чен окажется очень опасным кавалером.

Качество: BDRip [BDRemux 1080p]
Формат: AVI
Видео кодек: XviD
Аудио кодек: AC3
Видео: 720x304 (2.37:1), 23.976 fps, XviD build 73 ~1549 kbps avg, 0.29 bit/pixel
Аудио: 48 kHz, AC3 Dolby Digital, 2/0 (L,R) ch, ~192 kbps-Раздача от: -

Скриншоты

MI

D:Мои рипыGorgeous.1999.bdrip.dexter_lex.avi
General
Complete name : D:Мои рипыGorgeous.1999.bdrip.dexter_lex.avi
Format : AVI
Format/Info : Audio Video Interleave
File size : 1.46 GiB
Duration : 1h 59mn
Overall bit rate : 1 751 Kbps
Writing application : VirtualDubMod 1.5.10.3 | www.virtualdub-fr.org || (build 2550/release)
Writing library : VirtualDubMod build 2550/release
Video #0
ID : 0
Format : MPEG-4 Visual
Format profile : Advanced Simple@L5
Format settings, BVOP : 1
Format settings, QPel : No
Format settings, GMC : No warppoints
Format settings, Matrix : Custom
Codec ID : XVID
Codec ID/Hint : XviD
Duration : 1h 59mn
Bit rate : 1 550 Kbps
Width : 720 pixels
Height : 304 pixels
Display aspect ratio : 2.35:1
Frame rate : 23.976 fps
Color space : YUV
Chroma subsampling : 4:2:0
Bit depth : 8 bits
Scan type : Progressive
Compression mode : Lossy
Bits/(Pixel*Frame) : 0.295
Stream size : 1.29 GiB (88%)
Writing library : XviD 73
Audio #1
ID : 1
Format : AC-3
Format/Info : Audio Coding 3
Mode extension : CM (complete main)
Codec ID : 2000
Duration : 1h 59mn
Bit rate mode : Constant
Bit rate : 192 Kbps
Channel(s) : 2 channels
Channel positions : Front: L R
Sampling rate : 48.0 KHz
Bit depth : 16 bits
Compression mode : Lossy
Stream size : 164 MiB (11%)
Alignment : Split accross interleaves
Interleave, duration : 42 ms (1.00 video frame)
Interleave, preload duration : 500 ms
[Профиль] [ЛС]

Создавать темы 06-Авг-2015 22:54 (спустя 7 месяцев 19 дней)

Топик был перенесен из форума Фильмы до 2014 года в форум Фильмы до 2012 года
sergej644
 
Кто просматривает тему:

Форум Тема Автор Размер
Фильмы 2011 года 007: Казино Рояль / Casino Royale (Мартин Кэмпбелл / Martin Campbell) [2006, Германия, США, Великобритания, Чехия, боевик, триллер, приключения, BDRip] Dub [Полная версия / UnCut] painkiller 1.46 GB
Фильмы 2009 года 1066 - Нормандское завоевание Англии / 1066 - The Battle for Middle Earth (Джастин Харди / Justin Hardy) [2009, Великобритания, боевик, военный, история, DVDRip] VO (SDI Media) + Original Eng TorrentFilm 2.19 GB
Фильмы (HD Rips | 720p, 1080p) 12 лет рабства / 12 Years a Slave (Стив МакКуин / Steve McQueen) [2013, США, Великобритания, драма, биография, история, BDRip 720p] Dub + AVO (Сербин) + Sub Rus,Eng + Original Eng reversefile 8.9 GB
Фильмы 2010 года 127 часов / 127 Hours (Дэнни Бойл / Danny Boyle) [2010, США, Великобритания, триллер, биография, драма, BDRip-AVC] Dub + Original (Eng) + Sub (Rus, Eng) TorrentFilm 2.19 GB
Фильмы 2010 года 127 часов / 127 Hours (Дэнни Бойл / Danny Boyle) [2010, США, Великобритания, триллер, биография, драма, BDRip-AVC] Dub + Sub (Rus, Eng) TorrentFilm 1.45 GB
Фильмы 2010 года 127 Часов / 127 Hours (Дэнни Бойл / Danny Boyle) [2010, США, Великобритания, триллер, драма, приключения, биография, BDRip-AVC] Dub + 2x DVO (Кубик в кубе, OzzTV) + AVO (Сербин) + Original + Sub... TorrentFilm 3.79 GB
Документальные HD 20 000 дней на Земле / 20,000 Days on Earth (Ян Форсайт & Джейн Поллард / Iain Forsyth & Jane Pollard) [2014, Великобритания, Документальный, музыкальный, BDRip 1080p] + Sub Rus + Original Eng TorrentFilm 7.45 GB
Фильмы 2011 года 28 недель спустя / 28 Weeks Later (Хуан Карлос Фреснадильо / Juan Carlos Fresnadillo) [2007, Великобритания, Испания, ужасы, триллер, BDRip-AVC] Dub + DVO (П. Гланц и И. Королева) + Original (eng) +... TorrentFilm 4.11 GB
Показать сообщения:    

Текущее время: Сегодня 01:10

Часовой пояс: GMT



Вы не можете начинать темы
Вы не можете отвечать на сообщения
Вы не можете редактировать свои сообщения
Вы не можете удалять свои сообщения
Вы не можете голосовать в опросах
Вы не можете прикреплять файлы к сообщениям
Вы не можете скачивать файлы