Великолепный Гоша / Похождения Гоши Великолепного [01-10 из 10] (1981-1985) DVDRip-AVC

 
Автор Сообщение

Белочка ®

Пол:

Стаж: 5 лет 8 месяцев

Сообщений: 2081



Награды: 1 (Подробнее)

Girls (Количество: 1)
Торрент-статистика

Создавать темы 02-Ноя-2014 21:43

[Цитировать]

Информация о фильме
Название: Великолепный Гоша / Похождения Гоши Великолепного
Год выхода: 1981-1985
Жанр: мультфильм, комедия
Режиссер: Анатолий Солин
В ролях: Великолепный Гоша
О фильме:
Cерия комических фильмов о незадачливом Гоше, с которым вечно что-то случается.

Список выпусков:

01. «Великолепный Гоша. История первая» (1981 г.) - 00:03:20
02. «Великолепный Гоша. История вторая» (1981 г.) - 00:04:39
03. «Великолепный Гоша. История третья» (1981 г.) - 00:04:13
04. «Великолепный Гоша. История четвертая» (1982 г.) - 00:04:41
05. «Великолепный Гоша. История пятая» (1982 г.) - 00:03:00
06. «Великолепный Гоша. История шестая» (1982 г.) - 00:04:31
07. «Великолепный Гоша. История седьмая» (1982 г.) - 00:05:05
08. «Великолепный Гоша. История восьмая» (1983 г.) - 00:07:36
09. «Великолепный Гоша. История девятая» (1984 г.) - 00:04:56
10. «Великолепный Гоша. История десятая» (1985 г.) - 00:08:08

Страна: СССР
Студия: ТО Экран
Продолжительность: выпуск ~00:05:00
Перевод: не требуется
Файл
Кодек: h.264 (MKV)
Качество: DVDRip-AVC
Видео: AVC, 720 x 576, ~3065 kbps
Звук: AC-3, 2 ch, 256 kbps
Субтитры: нет

Скриншоты

MI

Общее
Уникальный идентификатор : 168348648403719580577546155723716462494 (0x7EA6C532C2870C1E037BA147C20E879E)
Полное имя : F:Великолепный Гоша (1981-1985)velikolepniy.gosha.mkv
Формат : Matroska
Версия формата : Version 2
Размер файла : 1,19 Гбайт
Продолжительность : 50 м.
Режим общего битрейта : Переменный
Общий поток : 3389 Кбит/сек
Программа кодирования : Lavf51.12.1
Библиотека кодирования : Lavf51.12.1
Видео
Идентификатор : 1
Формат : AVC
Формат/Информация : Advanced Video Codec
Профиль формата : Baseline@L3.0
Параметр CABAC формата : Нет
Параметр ReFrames формата : 1 кадр
Параметр GOP формата : M=1, N=12
Идентификатор кодека : V_MPEG4/ISO/AVC
Продолжительность : 50 м.
Вид битрейта : Переменный
Битрейт : 3065 Кбит/сек
Максимальный битрейт : 4500 Кбит/сек
Ширина : 720 пикселей
Высота : 576 пикселей
Соотношение сторон : 5:4
Соотношение сторон в оригинале : 1,278
Режим частоты кадров : Постоянный
Частота кадров : 25,000 кадров/сек
Частота кадров в оригинале : 24,000 кадра/сек
Стандарт вещания : PAL
Цветовое пространство : YUV
Субдискретизация насыщенности : 4:2:0
Битовая глубина : 8 бит
Тип развёртки : Прогрессивная
Бит/(Пиксели*Кадры) : 0.296
Размер потока : 1,08 Гбайт (90%)
Default : Да
Forced : Нет
Аудио
Идентификатор : 2
Формат : AC-3
Формат/Информация : Audio Coding 3
Расширение режима : CM (complete main)
Параметр Endianness формата : Big
Идентификатор кодека : A_AC3
Продолжительность : 50 м.
Вид битрейта : Постоянный
Битрейт : 256 Кбит/сек
Каналы : 2 канала
Расположение каналов : Front: L R
Частота : 48,0 КГц
Битовая глубина : 16 бит
Метод сжатия : С потерями
Размер потока : 92,0 Мбайт (8%)
Default : Да
Forced : Нет
[Профиль] [ЛС]
Показать сообщения:    

Текущее время: Сегодня 19:23

Часовой пояс: GMT



Вы не можете начинать темы
Вы не можете отвечать на сообщения
Вы не можете редактировать свои сообщения
Вы не можете удалять свои сообщения
Вы не можете голосовать в опросах
Вы не можете прикреплять файлы к сообщениям
Вы не можете скачивать файлы