Великолепная афера / Matchstick Men (2003) BDRip 720p | D, P

 
Автор Сообщение

Russian Mafia ®

Пол:

Стаж: 1 год 8 месяцев

Сообщений: 4247



Награды: 10 (Подробнее)

Top Releaser 5 (Количество: 1) За внесенный вклад в развитие сайта (Количество: 1) Mega Seeder 3 (Количество: 1)
Торрент-статистика

Создавать темы 17-Окт-2015 06:12

[Цитировать]

Информация о фильме
Название: Великолепная афера
Оригинальное название: Matchstick Men
Год выхода: 2003
Жанр: триллер, драма, комедия, криминал
Режиссер: Ридли Скотт
В ролях: Николас Кейдж, Сэм Рокуэлл, Элисон Ломан, Брюс Олтмен, Брюс МакГилл, Дженни О’Хара, Стив Истин, Бет Грант, Шейла Келли, Фрэн Кранц
О фильме:
Опытный мошенник Рой и его амбициозный протеже Фрэнк занимаются мелким надувательством в сфере торговли. Их фокусы приносят от нескольких сот до нескольких тысяч баксов, что, в конечном счете, делает их партнерство прибыльным. Однако, если с «работой» у Роя все в порядке, то личная жизнь полна проблем: он одинок, помешан на чистоте, и ко всему прочему не совсем психически здоров. На курсах психотерапии, на которые его заставил пойти Фрэнк, совершенно неожиданно Рой узнает о существовании дочери по имени Анжела.
Сначала появление дочки нарушает тщательно спланированный образ жизни ее отца, но вскоре Рой осознает все радости общения с близким человеком. После того как Анжела в итоге узнает чем занимается ее отец, по ее настоянию мошенники начинают обучать ее некоторым своим «приемам» торговли. К смешанному чувству удивления, гордости и тревоги отца, она показывает поразительный талант к мошенничеству…

Страна: США
Студия: ImageMovers, LivePlanet, Warner Bros. Pictures
Продолжительность: 01:56:06
Перевод: Профессиональный (полное дублирование) R5 + Профессиональный (многоголосый, закадровый)
Файл
Формат: Matroska
Качество: BDRip 720p
Видео: 1280x532 at 23.976 fps, MPEG-4 AVC, ~4100 kbps avg
Аудио#1: Russian: 48 kHz, AC3, 3/2 (L,C,R,l,r) + LFE ch, ~384.00 kbps avg |Дубляж, R5|
Аудио#2: Russian: 48 kHz, AC3, 3/2 (L,C,R,l,r) + LFE ch, ~384.00 kbps avg |Многоголосый закадровый|
Субтитры: Нет--

M/I

eneral
Unique ID : 248773217949124964065147400406791446522 (0xBB27FA9E7F590C03C5DAB9BFAD715FFA)
Complete name : F:FILMSВеликолепная афера.(2003).BLU-RAY.720p.[-=DoMiNo=-].mkv
Format : Matroska
Format version : Version 4 / Version 2
File size : 3.95 GiB
Duration : 1h 56mn
Overall bit rate : 4 873 Kbps
Movie name : Великолепная афера
Writing application : XviD4PSP 7.0.177
Writing library : Lavf56.25.101
ORIGINAL_TITLE : Matchstick Men
DATE : 2003
GENRE : триллер, драма, комедия, криминал
ENCODING_INFO : BluRay > MKV 720p / H264 > X264 VBR-2P 4100kbps Custom / AC3 > COPY / AC3 > COPY
SYNOPSIS : Опытный мошенник Рой и его амбициозный протеже Фрэнк занимаются мелким надувательством в сфере торговли. Их фокусы приносят от нескольких сот до нескольких тысяч баксов, что, в конечном счете, делает их партнерство прибыльным. Однако, если с «работой» у Роя все в порядке, то личная жизнь полна проблем: он одинок, помешан на чистоте, и ко всему прочему не совсем психически здоров. На курсах психотерапии, на которые его заставил пойти Фрэнк, совершенно неожиданно Рой узнает о существовании дочери по имени Анжела.Сначала появление дочки нарушает тщательно спланированный образ жизни ее отца, но вскоре Рой осознает все радости общения с близким человеком. После того как Анжела в итоге узнает чем занимается ее отец, по ее настоянию мошенники начинают обучать ее некоторым своим «приемам» торговли. К смешанному чувству удивления, гордости и тревоги отца, она показывает поразительный талант к мошенничеству…
ITUNEXTC : mpaa|PG-13|300|
ACTORS : Николас Кейдж, Сэм Рокуэлл, Элисон Ломан, Брюс Олтмен, Брюс МакГилл, Дженни О’Хара, Стив Истин, Бет Грант, Шейла Келли, Фрэн Кранц, Игорь Тарадайкин, Денис Беспалый, Жанна Никонова, Вадим Андреев, Алексей Колган, показать всех
DIRECTOR : Ридли Скотт
PRODUCER : Шон Бэйли, Тед Гриффин, Джек Рэпк
WRITER : Николас Гриффин, Тед Гриффин, Эрик Гарсия
COUNTRY : США
RATING : 7.788
IMDB_RATING : 7.30
Language : und
FILENAME : cover.png
Attachements : cover.png
Video
ID : 1
Format : AVC
Format/Info : Advanced Video Codec
Format profile : High@L4.1
Format settings, CABAC : Yes
Format settings, ReFrames : 9 frames
Codec ID : V_MPEG4/ISO/AVC
Duration : 1h 56mn
Bit rate : 4 100 Kbps
Width : 1 280 pixels
Height : 532 pixels
Display aspect ratio : 2.40:1
Frame rate mode : Constant
Frame rate : 23.976 fps
Color space : YUV
Chroma subsampling : 4:2:0
Bit depth : 8 bits
Scan type : Progressive
Bits/(Pixel*Frame) : 0.251
Stream size : 3.25 GiB (82%)
Title : Matchstick Men (2003)
Writing library : x264 core 148 r2597M e86f3a1
Encoding settings : cabac=1 / ref=9 / deblock=1:-3:-3 / analyse=0x3:0x133 / me=umh / subme=11 / psy=1 / psy_rd=1.00:0.20 / mixed_ref=1 / me_range=32 / chroma_me=1 / trellis=2 / 8x8dct=1 / cqm=0 / deadzone=21,11 / fast_pskip=0 / chroma_qp_offset=-3 / threads=5 / lookahead_threads=1 / sliced_threads=0 / nr=0 / decimate=1 / interlaced=0 / bluray_compat=0 / constrained_intra=0 / bframes=10 / b_pyramid=2 / b_adapt=2 / b_bias=0 / direct=3 / weightb=1 / open_gop=0 / weightp=2 / keyint=230 / keyint_min=23 / scenecut=40 / intra_refresh=0 / rc=2pass / mbtree=0 / bitrate=4100 / ratetol=1.0 / qcomp=0.60 / qpmin=0 / qpmax=69 / qpstep=4 / cplxblur=20.0 / qblur=0.5 / ip_ratio=1.40 / pb_ratio=1.30 / aq=1:1.00
Default : Yes
Forced : No
Audio #1
ID : 2
Format : AC-3
Format/Info : Audio Coding 3
Mode extension : CM (complete main)
Format settings, Endianness : Big
Codec ID : A_AC3
Duration : 1h 56mn
Bit rate mode : Constant
Bit rate : 384 Kbps
Channel(s) : 6 channels
Channel positions : Front: L C R, Side: L R, LFE
Sampling rate : 48.0 KHz
Bit depth : 32 bits
Compression mode : Lossy
Stream size : 319 MiB (8%)
Title : дубляж, R5
Language : Russian
Default : Yes
Forced : No
Audio #2
ID : 3
Format : AC-3
Format/Info : Audio Coding 3
Mode extension : CM (complete main)
Format settings, Endianness : Big
Codec ID : A_AC3
Duration : 1h 56mn
Bit rate mode : Constant
Bit rate : 384 Kbps
Channel(s) : 6 channels
Channel positions : Front: L C R, Side: L R, LFE
Sampling rate : 48.0 KHz
Bit depth : 32 bits
Compression mode : Lossy
Stream size : 319 MiB (8%)
Title : многоголосый
Language : Russian
Default : No
Forced : No
Menu
00:00:00.000 : :Глава 1
00:02:04.665 : :Глава 2
00:05:21.278 : :Глава 3
00:09:46.168 : :Глава 4
00:13:52.998 : :Глава 5
00:20:01.200 : :Глава 6
00:24:17.538 : :Глава 7
00:30:22.612 : :Глава 8
00:33:49.902 : :Глава 9
00:36:10.418 : :Глава 10
00:40:32.847 : :Глава 11
00:45:39.110 : :Глава 12
00:49:02.563 : :Глава 13
00:52:47.998 : :Глава 14
00:54:59.670 : :Глава 15
00:59:43.371 : :Глава 16
01:02:29.244 : :Глава 17
01:06:16.931 : :Глава 18
01:10:13.250 : :Глава 19
01:16:07.436 : :Глава 20
01:19:19.087 : :Глава 21
01:22:05.962 : :Глава 22
01:27:06.804 : :Глава 23
01:30:59.537 : :Глава 24
01:34:16.233 : :Глава 25
01:38:14.012 : :Глава 26
01:43:19.275 : :Глава 27
01:45:00.335 : :Глава 28
01:47:58.470 : :Глава 29
01:51:25.511 : :Глава 30
01:56:07.961 : :Глава 31
-- --
[Профиль] [ЛС]
Кто просматривает тему:

Форум Тема Автор Размер
Фильмы 2011 года 007: Казино Рояль / Casino Royale (Мартин Кэмпбелл / Martin Campbell) [2006, Германия, США, Великобритания, Чехия, боевик, триллер, приключения, BDRip] Dub [Полная версия / UnCut] painkiller 1.46 GB
Фильмы 2009 года 1066 - Нормандское завоевание Англии / 1066 - The Battle for Middle Earth (Джастин Харди / Justin Hardy) [2009, Великобритания, боевик, военный, история, DVDRip] VO (SDI Media) + Original Eng TorrentFilm 2.19 GB
Фильмы (HD Rips | 720p, 1080p) 12 лет рабства / 12 Years a Slave (Стив МакКуин / Steve McQueen) [2013, США, Великобритания, драма, биография, история, BDRip 720p] Dub + AVO (Сербин) + Sub Rus,Eng + Original Eng reversefile 8.9 GB
Фильмы 2010 года 127 часов / 127 Hours (Дэнни Бойл / Danny Boyle) [2010, США, Великобритания, триллер, биография, драма, BDRip-AVC] Dub + Original (Eng) + Sub (Rus, Eng) TorrentFilm 2.19 GB
Фильмы 2010 года 127 часов / 127 Hours (Дэнни Бойл / Danny Boyle) [2010, США, Великобритания, триллер, биография, драма, BDRip-AVC] Dub + Sub (Rus, Eng) TorrentFilm 1.45 GB
Фильмы 2010 года 127 Часов / 127 Hours (Дэнни Бойл / Danny Boyle) [2010, США, Великобритания, триллер, драма, приключения, биография, BDRip-AVC] Dub + 2x DVO (Кубик в кубе, OzzTV) + AVO (Сербин) + Original + Sub... TorrentFilm 3.79 GB
Документальные HD 20 000 дней на Земле / 20,000 Days on Earth (Ян Форсайт & Джейн Поллард / Iain Forsyth & Jane Pollard) [2014, Великобритания, Документальный, музыкальный, BDRip 1080p] + Sub Rus + Original Eng TorrentFilm 7.45 GB
Фильмы 2011 года 28 недель спустя / 28 Weeks Later (Хуан Карлос Фреснадильо / Juan Carlos Fresnadillo) [2007, Великобритания, Испания, ужасы, триллер, BDRip-AVC] Dub + DVO (П. Гланц и И. Королева) + Original (eng) +... TorrentFilm 4.11 GB
Показать сообщения:    

Текущее время: Сегодня 12:26

Часовой пояс: GMT



Вы не можете начинать темы
Вы не можете отвечать на сообщения
Вы не можете редактировать свои сообщения
Вы не можете удалять свои сообщения
Вы не можете голосовать в опросах
Вы не можете прикреплять файлы к сообщениям
Вы не можете скачивать файлы