Великий Человек-паук / Совершенный Человек-паук / Ultimate Spider-Man [01x01-26 из 26] (2012) DVDRip-AVC | D | лицензия

 
Автор Сообщение

Russian Mafia ®

Пол:

Стаж: 1 год 8 месяцев

Сообщений: 4260



Награды: 10 (Подробнее)

Top Releaser 5 (Количество: 1) Mega Seeder 3 (Количество: 1) Mega Seeder 5 (Количество: 1)
Торрент-статистика

Создавать темы 09-Сен-2015 12:48

[Цитировать]

-Страна: США
Год выпуска: 2012
Киностудии: Film Roman Productions, Marvel Animation
Жанр: мультфильм, фантастика, боевик, приключения
Продолжительность: ~ 00:21:12 минута / серия
Перевод: Профессиональный (полное дублирование) Невафильм
Субтитры: русские (полные и форсированные)
Оригинальная аудиодорожка: английский-Режиссер: Алекс Сото / Alex Soto, Филип Пиньотти / Philip Pignotti, Тим Молтби / Tim Maltby, Рой Бурдин / Roy Burdine, Джефф Аллен / Jeff Allen, Тим Элдред / Tim Eldred, Гари Хартл / Gary Hartle, Кэлвин Ли / Kalvin Lee-Озвучивали: Дрейк Белл, Чи МакБрайд, Оги Бэнкс, Логан Миллер, Грег Сайпс, Кейтлин Тейлор Лав, Дж.К. Симмонс, Кларк Грегг, Мисти Ли, Мэтт Лантер...
Дублировали: Александр Быковский, Максим Сергеев, Артём Николаев, Руслан Мещанов, Виктория Слуцкая, Вадим Гущин, Вадим Романов, Артем Веселов, Екатерина Гороховская, Валерий Смекалов, Андрей Матвеев...
Описание: Мультсериал основан на одноимённой серии комиксов, повествующих о ещё молодом Человеке-пауке, которому Ник Фьюри предложил пройти тренировочный курс для улучшения собственных навыков. В ходе обучения Человек-паук обзаводится командой из Люка Кейджа, Железного кулака, Новы и Белой тигрицы. В ходе тренировок ему предоставляется собственный мотоцикл (Спайдерцикл). В одной из серий Человек-паук встретит Железного Человека, который сделает ему броню Железного Паука.
-Качество: DVDRip-AVC / 4 x DVD9 R5 лицензионные диски от "Уолт Дисней Компани СНГ"
Формат: MKV
Видео: 720x576@1024x576 (16:9), 25.000 fps, MPEG-4 AVC ~ 1809 kbps avg, 0.174 bit/pixel
Аудио 1: 48 kHz, Dolby AC3 2.0 192 kbps, русский
Аудио 2: 48 kHz, Dolby AC3 5.1 384 kbps, английский
Формат субтитров: SoftSub (srt)
Дополнительно: В этой раздаче есть русские субтитры двух видов, полные и форсированные. Субтитры находятся внутри файлов с сериями. Форсированные субтитры (если они есть в серии) включаются по умолчанию. Полные субтитры включаются кнопкой пульта или программно. Названия серий, русские и английские (по версии Кинопоиска), а также даты создания серий, приведены под спойлером "Серии".

Серии

Том 1: Геройский арсенал
01. Великая сила / Great Power, 4 декабря 2012
02. Великая ответственность / Great Responsibility, 1 апреля 2012
03. Полёт железного паука / Flight of the Iron Spider, 22 апреля 2012
04. Почему я ненавижу физкультуру / Why I Hate the Gym, 29 апреля 2012
05. Эксклюзив / Exclusive, 6 мая 2012
06. Время для меня / Me Time, 1 июля 2012
----------------------------------------------------
Том 2: Человек-паук против величайших злодеев MARVEL
07. Обречённые / Doomed, 8 апреля 2012
08. Веном / Venom, 15 апреля 2012
09. Снова в черное / Back in Black, 13 мая 2012
10. Экскурсия / Field Trip, 20 мая 2012
11. Ядовитый / Venomous, 24 июня 2012
12. Стрэндж / Strange, 8 июля 2012
----------------------------------------------------
Том 3: Мститель
13. Только для ваших глаз / For Your Eye Only, 22 июля 2012
14. Дома больной Халк / Home Sick Hulk, 9 сентября 2012
15. Беги, свинья, беги / Run Pig Run, 16 сентября 2012
16. Железный Осьминог / The Iron Octopus, 30 сентября 2012
17. Не игрушка / Not a Toy, 7 октября 2012
18. Атака Жука / Attack of the Beetle, 14 октября 2012
19. Я - Человек-паук / I Am Spider-Man, 23 сентября 2012
----------------------------------------------------
Том 4: Супертехника
20. Отпад / Awesome, 15 июля 2012
21. Мания Жука / Beetle Mania, 29 июля 2012
22. Снежный день / Snow Day, 2012
23. Урон / Damage, 19 августа 2012
24. Разоблачённый / Revealed, 28 октября 2012
25. Восхождение Гоблина / Rise of the Goblin, 28 октября 2012
26. Странный / Freaky, 17 июня 2012

MediaInfo

Общее
Полное имя : Velikiy.Chelovek-pauk.2012.D.DVDRip-AVC_[New-Team]_by_avproh1.Velikaya.sila.mkv
Формат : Matroska
Версия формата : Version 4 / Version 2
Размер файла : 362 Мбайт
Продолжительность : 21 м.
Общий поток : 2388 Кбит/сек
Дата кодирования : UTC 2014-08-11 06:54:00
Программа кодирования : mkvmerge v7.1.0 ('Good Love') 64bit built on Jul 27 2014 13:06:55
Библиотека кодирования : libebml v1.3.0 + libmatroska v1.4.1
_STATISTICS_WRITING_APP : mkvmerge v7.1.0 ('Good Love') 64bit built on Jul 27 2014 13:06:55
_STATISTICS_WRITING_DATE_UTC : 2014-08-11 06:54:00
_STATISTICS_TAGS : BPS DURATION NUMBER_OF_FRAMES NUMBER_OF_BYTES
DURATION : 00:08:27.189000000
NUMBER_OF_FRAMES : 8
NUMBER_OF_BYTES : 194
Видео
Идентификатор : 1
Формат : AVC
Формат/Информация : Advanced Video Codec
Профиль формата : High@L4.1
Параметр CABAC формата : Да
Параметр ReFrames формата : 8 кадров
Идентификатор кодека : V_MPEG4/ISO/AVC
Продолжительность : 21 м.
Битрейт : 1809 Кбит/сек
Ширина : 720 пикселей
Высота : 576 пикселей
Соотношение сторон : 16:9
Режим частоты кадров : Постоянный
Частота кадров : 25,000 кадров/сек
Стандарт вещания : PAL
Цветовое пространство : YUV
Субдискретизация насыщенности : 4:2:0
Битовая глубина : 8 бит
Тип развёртки : Прогрессивная
Бит/(Пиксели*Кадры) : 0.174
Размер потока : 268 Мбайт (74%)
Библиотека кодирования : x264 core 138 r2356 a1d3d17
Настройки программы : cabac=1 / ref=8 / deblock=1:-2:-1 / analyse=0x3:0x113 / me=umh / subme=10 / psy=1 / psy_rd=1.00:0.05 / mixed_ref=1 / me_range=32 / chroma_me=1 / trellis=2 / 8x8dct=1 / cqm=0 / deadzone=21,11 / fast_pskip=0 / chroma_qp_offset=-3 / threads=9 / lookahead_threads=1 / sliced_threads=0 / nr=0 / decimate=0 / interlaced=0 / bluray_compat=0 / constrained_intra=0 / bframes=8 / b_pyramid=2 / b_adapt=2 / b_bias=0 / direct=3 / weightb=1 / open_gop=0 / weightp=2 / keyint=250 / keyint_min=25 / scenecut=40 / intra_refresh=0 / rc=2pass / mbtree=0 / bitrate=1809 / ratetol=1.0 / qcomp=0.60 / qpmin=0 / qpmax=69 / qpstep=4 / cplxblur=20.0 / qblur=0.5 / ip_ratio=1.40 / pb_ratio=1.30 / aq=1:1.00
Язык : English
Default : Да
Forced : Нет
_STATISTICS_WRITING_APP : mkvmerge v7.1.0 ('Good Love') 64bit built on Jul 27 2014 13:06:55
_STATISTICS_WRITING_DATE_UTC : 2014-08-11 06:54:00
_STATISTICS_TAGS : BPS DURATION NUMBER_OF_FRAMES NUMBER_OF_BYTES
DURATION : 00:21:12.280000000
NUMBER_OF_FRAMES : 31807
NUMBER_OF_BYTES : 287847180
Аудио #1
Идентификатор : 2
Формат : AC-3
Формат/Информация : Audio Coding 3
Профиль формата : Dolby Digital
Расширение режима : CM (complete main)
Параметр Endianness формата : Big
Идентификатор кодека : A_AC3
Продолжительность : 21 м.
Вид битрейта : Постоянный
Битрейт : 192 Кбит/сек
Каналы : 2 канала
Расположение каналов : Front: L R
Частота : 48,0 КГц
Битовая глубина : 16 бит
Метод сжатия : С потерями
Размер потока : 29,1 Мбайт (8%)
Язык : Russian
Default : Да
Forced : Нет
Аудио #2
Идентификатор : 3
Формат : AC-3
Формат/Информация : Audio Coding 3
Расширение режима : CM (complete main)
Параметр Endianness формата : Big
Идентификатор кодека : A_AC3
Продолжительность : 21 м.
Вид битрейта : Постоянный
Битрейт : 384 Кбит/сек
Каналы : 6 каналов
Расположение каналов : Front: L C R, Side: L R, LFE
Частота : 48,0 КГц
Битовая глубина : 16 бит
Метод сжатия : С потерями
Размер потока : 58,2 Мбайт (16%)
Язык : English
Default : Нет
Forced : Нет
Текст #1
Идентификатор : 4
Формат : UTF-8
Идентификатор кодека : S_TEXT/UTF8
Идентификатор кодека/Информация : UTF-8 Plain Text
Заголовок : Forced
Язык : Russian
Default : Да
Forced : Нет
Текст #2
Идентификатор : 5
Формат : UTF-8
Идентификатор кодека : S_TEXT/UTF8
Идентификатор кодека/Информация : UTF-8 Plain Text
Язык : Russian
Default : Нет
Forced : Нет

Скриншоты

[Профиль] [ЛС]
Кто просматривает тему:

Форум Тема Автор Размер
Фильмы 2011 года 007: Казино Рояль / Casino Royale (Мартин Кэмпбелл / Martin Campbell) [2006, Германия, США, Великобритания, Чехия, боевик, триллер, приключения, BDRip] Dub [Полная версия / UnCut] painkiller 1.46 GB
Фильмы 2009 года 1066 - Нормандское завоевание Англии / 1066 - The Battle for Middle Earth (Джастин Харди / Justin Hardy) [2009, Великобритания, боевик, военный, история, DVDRip] VO (SDI Media) + Original Eng TorrentFilm 2.19 GB
Фильмы (HD Rips | 720p, 1080p) 12 лет рабства / 12 Years a Slave (Стив МакКуин / Steve McQueen) [2013, США, Великобритания, драма, биография, история, BDRip 720p] Dub + AVO (Сербин) + Sub Rus,Eng + Original Eng reversefile 8.9 GB
Фильмы 2010 года 127 часов / 127 Hours (Дэнни Бойл / Danny Boyle) [2010, США, Великобритания, триллер, биография, драма, BDRip-AVC] Dub + Original (Eng) + Sub (Rus, Eng) TorrentFilm 2.19 GB
Фильмы 2010 года 127 часов / 127 Hours (Дэнни Бойл / Danny Boyle) [2010, США, Великобритания, триллер, биография, драма, BDRip-AVC] Dub + Sub (Rus, Eng) TorrentFilm 1.45 GB
Фильмы 2010 года 127 Часов / 127 Hours (Дэнни Бойл / Danny Boyle) [2010, США, Великобритания, триллер, драма, приключения, биография, BDRip-AVC] Dub + 2x DVO (Кубик в кубе, OzzTV) + AVO (Сербин) + Original + Sub... TorrentFilm 3.79 GB
Документальные HD 20 000 дней на Земле / 20,000 Days on Earth (Ян Форсайт & Джейн Поллард / Iain Forsyth & Jane Pollard) [2014, Великобритания, Документальный, музыкальный, BDRip 1080p] + Sub Rus + Original Eng TorrentFilm 7.45 GB
Фильмы 2011 года 28 недель спустя / 28 Weeks Later (Хуан Карлос Фреснадильо / Juan Carlos Fresnadillo) [2007, Великобритания, Испания, ужасы, триллер, BDRip-AVC] Dub + DVO (П. Гланц и И. Королева) + Original (eng) +... TorrentFilm 4.11 GB
Показать сообщения:    

Текущее время: Сегодня 12:11

Часовой пояс: GMT



Вы не можете начинать темы
Вы не можете отвечать на сообщения
Вы не можете редактировать свои сообщения
Вы не можете удалять свои сообщения
Вы не можете голосовать в опросах
Вы не можете прикреплять файлы к сообщениям
Вы не можете скачивать файлы