Великий утешитель (1933) DVDRip от New-Team

 
Автор Сообщение

К@питан ®

Пол:

Стаж: 5 лет 6 месяцев

Сообщений: 6092

Откуда: Soviet Union



Награды: Нет

Торрент-статистика

Создавать темы 11-Ноя-2014 09:17

[Цитировать]

Страна: СССР
Производство: Межрабпомфильм
Жанр: драма
Год выпуска: 1933
Продолжительность: 01:32:03
Перевод: не требуется
Оригинальная аудиодорожка: русский
Cубтитры: нет
Режиссер: Лев Кулешов
В ролях:
Константин Хохлов, Иван Новосельцев, Василий Ковригин, Андрей Файт, Даниил Введенский, Родд Вейланд, О.Раевская, С.Слетов, Александра Хохлова, Галина Кравченко, Петр Галаджев, В.Лопатина, Михаил Доронин, Андрей Горчилин...
Описание:
Главный герой, известный писатель, пребывает в тюрьме. Особых провинностей за ним не числится. Он даже пользуется правом свободного передвижения. Внутри тюрьмы, разумеется. Администрация ценит писателя потому, что, сидя за решеткой, он сочиняет красивые, убаюкивающие историйки со счастливым концом. Читающая публика воспитана на его душещипательных сюжетцах и желает строить по ним свою жизнь. И, что весьма примечательно, едва ли не главным поклонником подобных сочинений является начальник тюрьмы. Свобода, данная писателю в рамках его тюремного бытия, кажется ему достаточной. Он покорен судьбе и не представляет иного существования.- [/url] -Исходник: DVD5 R5
Тип релиза: DVDRip
Контейнер: AVI
Видео: 656x496 (4:3), 25 fps, XviD ~ 2064 kbps avg, 0.254 bit/pixel
Аудио: 48 kHz, Dolby Digital AC3 2.0, 192 kbps
Раздача от:

MediaInfo

Общее
Полное имя : Velikiy.uteshitel.1933.DVDRip_[New-team]_by_AVP_Studio.avi
Формат : AVI
Формат/Информация : Audio Video Interleave
Размер файла : 1,46 Гбайт
Продолжительность : 1 ч. 32 м.
Общий поток : 2265 Кбит/сек
Программа кодирования : VirtualDubModRus 1.5.10.2 (build 2542/release)
Библиотека кодирования : VirtualDubMod build 2542/release
Видео
Идентификатор : 0
Формат : MPEG-4 Visual
Профиль формата : Advanced Simple@L5
Параметр BVOP формата : 1
Параметр QPel формата : Нет
Параметр GMC формата : Без точки перехода
Параметр матрицы формата : Выборочная
Идентификатор кодека : XVID
Идентификатор кодека/Подсказка : XviD
Продолжительность : 1 ч. 32 м.
Битрейт : 2064 Кбит/сек
Ширина : 656 пикселей
Высота : 496 пикселей
Соотношение сторон : 4:3
Частота кадров : 25,000 кадров/сек
Цветовое пространство : YUV
Субдискретизация насыщенности : 4:2:0
Битовая глубина : 8 бит
Тип развёртки : Прогрессивная
Метод сжатия : С потерями
Бит/(Пиксели*Кадры) : 0.254
Размер потока : 1,33 Гбайт (91%)
Библиотека кодирования : XviD 73
Аудио
Идентификатор : 1
Формат : AC-3
Формат/Информация : Audio Coding 3
Расширение режима : CM (complete main)
Параметр Endianness формата : Big
Идентификатор кодека : 2000
Продолжительность : 1 ч. 32 м.
Вид битрейта : Постоянный
Битрейт : 192 Кбит/сек
Каналы : 2 канала
Расположение каналов : Front: L R
Частота : 48,0 КГц
Битовая глубина : 16 бит
Метод сжатия : С потерями
Размер потока : 126 Мбайт (8%)
Выравнивание : Разделение по промежуткам
Продолжительность промежутка : 40 мс. (1,00 видеокадр)
Время предзагрузки промежутка : 500 мс

Скриншоты

[Профиль] [ЛС]

Создавать темы 06-Авг-2015 22:03 (спустя 8 месяцев 25 дней)

Топик был перенесен из форума Кино СССР в форум Кино СССР
sergej644
 
Кто просматривает тему:

Форум Тема Автор Размер
365 365: Мебель Версаля. От Короля-Солнце до Великой французской революции / Le Mobilier de Versailles. Du Roi-Soleil à la Révolution (Фабрис Урлье / Fabrice Hourlier) [2014 г., Документальный, история,... skorpionN 744 MB
История древнего мира BBC: Египет. Великое открытие / Egypt. Rediscovering a Lost World [серии 1-6 из ] (Фердинанд Фэйрфакс / Ferdinand Fairfax) [2005 г., Документально-художественный, альтернати... skorpionN 4.17 GB
BBC BBC: Тайны вселенной: Великие ученые своими словами / Secrets Of The Universe: Great Scientists In Their Own Words (Suzy Boyles) [2014 г., Документальный, научно-познавательный, биографический,... skorpionN 702 MB
Viasat History Viasat History: Затерянный мир Александра Великого (1-6 серии из 6) / Alexander’s Lost World (Девид Адамс / David Adams) [2013, Документальный, альтернативная история, псевдоистория HDTVRip 720p] TorrentFilm 9.4 GB
Viasat History Viasat History: Разоблаченные монументы (Великие памятники архитектуры) / Monuments revealed [сезон 1 серия 1-3 из 3] (Olivier Julien, Pascal Cuissot, Gary Glassman) [2014 г., Документ... skorpionN 3.53 GB
Биографии и личности Александр Великий / Alexander der Große [серии 1-2 из 2] (Martin Carazo Mendez, Christian Twente) [2014 г., Документально-игровой, история, SATRip] skorpionN 1.21 GB
Трейлеры Великая стена / The Great Wall (2016) WEBRip-1080p | Трейлер достали все 115 MB
Биографии и личности Гений Великобритании: Ученые, которые изменили мир / Genius of Britain: The Scientists World [серии 1-5 из 5] (Кристофер Сайкс, Джонатан Руд) [2010 г., Документальный, познавательный, история, SATRip] skorpionN 3.56 GB
Показать сообщения:    

Текущее время: Сегодня 21:04

Часовой пояс: GMT



Вы не можете начинать темы
Вы не можете отвечать на сообщения
Вы не можете редактировать свои сообщения
Вы не можете удалять свои сообщения
Вы не можете голосовать в опросах
Вы не можете прикреплять файлы к сообщениям
Вы не можете скачивать файлы