Великий уравнитель / The Equalizer (Антуан Фукуа / Antoine Fuqua) [2014, США, Боевик, триллер, криминал, BDRip] Dub

 
Автор Сообщение

TorrentFilm ®

Пол:

Стаж: 2 года

Сообщений: 7741



Награды: Нет

Торрент-статистика

Создавать темы 17-Дек-2014 02:38

[Цитировать]

Великий уравнитель / The Equalizer- Год выпуска: 2014
Выпущено: США / Columbia Pictures
Жанр: боевик, триллер, криминал
Продолжительность: 02:12:02
Перевод: Профессиональный (полное дублирование)
Cубтитры: нет-Режиссер:
Антуан Фукуа / Antoine Fuqua-В ролях:
Дензел Вашингтон (Robert McCall), Мартон Чокаш (Teddy), Хлоя Грейс Морец (Teri), Дэвид Харбор (Masters), Хейли Беннетт (Mandy), Билл Пуллман (Brian Plummer), Мелисса Лео (Susan Plummer), Дэвид Мюнье (Slavi), Джонни Скуртис (Ralphie), Алекс Видов (Tevi), Владимир Кулих (Vladimir Pushkin)-Описание:
Роберт МакКолл — бывший спецназовец. После увольнения со службы он собирается начать нормальную мирную жизнь, дав себе обещание больше никогда не брать в руки оружия. Но в один прекрасный момент он встречает молодую девушку, зарабатывающую на жизнь проституцией, которую на его глазах избивают бандиты и увозят в неизвестном направлении. Тогда он решает отыскать ее, после чего вступает в неравную схватку с русской мафией и продажными агентами ЦРУ. Ради справедливости он готов нарушить собственное обещание и применить оружие против людей, которые просто не заслуживают жить в этом мире…-Релиз групп | | IMDB | КиноПоиск | Сэмпл |-Качество: BDRip [BDRemux | 1080p | Кинозал]
Формат: AVI
Видео: 720x304 (2.37:1), 23.976 fps, XviD build 73 ~1379 kbps avg, 0.26 bit/pixel
Аудио: 48 kHz, AC3 Dolby Digital, 2/0 (L,R) ch, ~192.00 kbps avg - iTunes Russia
-

Скриншоты

MediaInfo

General
Complete name                            : D:\Velikiy_uravnitel`_2014_BDRip_iTunes_by_Dalemake.avi
Format                                   : AVI
Format/Info                              : Audio Video Interleave
File size                                : 1.46 GiB
Duration                                 : 2h 12mn
Overall bit rate                         : 1 581 Kbps
Writing application                      : VirtualDubMod 1.5.10.3 | www.virtualdub-fr.org || (build 2550/release)
Writing library                          : VirtualDubMod build 2550/release
Video
ID                                       : 0
Format                                   : MPEG-4 Visual
Format profile                           : Advanced Simple@L5
Format settings, BVOP                    : 1
Format settings, QPel                    : No
Format settings, GMC                     : No warppoints
Format settings, Matrix                  : Custom
Codec ID                                 : XVID
Codec ID/Hint                            : XviD
Duration                                 : 2h 12mn
Bit rate                                 : 1 379 Kbps
Width                                    : 720 pixels
Height                                   : 304 pixels
Display aspect ratio                     : 2.35:1
Frame rate                               : 23.976 fps
Color space                              : YUV
Chroma subsampling                       : 4:2:0
Bit depth                                : 8 bits
Scan type                                : Progressive
Compression mode                         : Lossy
Bits/(Pixel*Frame)                       : 0.263
Stream size                              : 1.27 GiB (87%)
Writing library                          : XviD 73
Audio
ID                                       : 1
Format                                   : AC-3
Format/Info                              : Audio Coding 3
Mode extension                           : CM (complete main)
Format settings, Endianness              : Big
Codec ID                                 : 2000
Duration                                 : 2h 12mn
Bit rate mode                            : Constant
Bit rate                                 : 192 Kbps
Channel(s)                               : 2 channels
Channel positions                        : Front: L R
Sampling rate                            : 48.0 KHz
Bit depth                                : 16 bits
Compression mode                         : Lossy
Stream size                              : 181 MiB (12%)
Alignment                                : Split accross interleaves
Interleave, duration                     : 42 ms (1.00 video frame)
Interleave, preload duration             : 500 ms
-
[Профиль] [ЛС]
Кто просматривает тему:

Форум Тема Автор Размер
Фильмы 2011 года 007: Казино Рояль / Casino Royale (Мартин Кэмпбелл / Martin Campbell) [2006, Германия, США, Великобритания, Чехия, боевик, триллер, приключения, BDRip] Dub [Полная версия / UnCut] painkiller 1.46 GB
Фильмы 2009 года 1066 - Нормандское завоевание Англии / 1066 - The Battle for Middle Earth (Джастин Харди / Justin Hardy) [2009, Великобритания, боевик, военный, история, DVDRip] VO (SDI Media) + Original Eng TorrentFilm 2.19 GB
Фильмы (HD Rips | 720p, 1080p) 12 лет рабства / 12 Years a Slave (Стив МакКуин / Steve McQueen) [2013, США, Великобритания, драма, биография, история, BDRip 720p] Dub + AVO (Сербин) + Sub Rus,Eng + Original Eng reversefile 8.9 GB
Фильмы 2010 года 127 часов / 127 Hours (Дэнни Бойл / Danny Boyle) [2010, США, Великобритания, триллер, биография, драма, BDRip-AVC] Dub + Original (Eng) + Sub (Rus, Eng) TorrentFilm 2.19 GB
Фильмы 2010 года 127 часов / 127 Hours (Дэнни Бойл / Danny Boyle) [2010, США, Великобритания, триллер, биография, драма, BDRip-AVC] Dub + Sub (Rus, Eng) TorrentFilm 1.45 GB
Фильмы 2010 года 127 Часов / 127 Hours (Дэнни Бойл / Danny Boyle) [2010, США, Великобритания, триллер, драма, приключения, биография, BDRip-AVC] Dub + 2x DVO (Кубик в кубе, OzzTV) + AVO (Сербин) + Original + Sub... TorrentFilm 3.79 GB
Документальные HD 20 000 дней на Земле / 20,000 Days on Earth (Ян Форсайт & Джейн Поллард / Iain Forsyth & Jane Pollard) [2014, Великобритания, Документальный, музыкальный, BDRip 1080p] + Sub Rus + Original Eng TorrentFilm 7.45 GB
Фильмы 2011 года 28 недель спустя / 28 Weeks Later (Хуан Карлос Фреснадильо / Juan Carlos Fresnadillo) [2007, Великобритания, Испания, ужасы, триллер, BDRip-AVC] Dub + DVO (П. Гланц и И. Королева) + Original (eng) +... TorrentFilm 4.11 GB
Показать сообщения:    

Текущее время: Сегодня 07:13

Часовой пояс: GMT



Вы не можете начинать темы
Вы не можете отвечать на сообщения
Вы не можете редактировать свои сообщения
Вы не можете удалять свои сообщения
Вы не можете голосовать в опросах
Вы не можете прикреплять файлы к сообщениям
Вы не можете скачивать файлы