Великий Север / Great North (Мартин Дж. Дигнард / Martin J. Dignard, Уиллиям Риив / William Reeve) [2001 г., Документальный, BDRip 720p]

 
Автор Сообщение

TorrentFilm ®

Пол:

Стаж: 2 года

Сообщений: 7741



Награды: Нет

Торрент-статистика

Создавать темы 04-Фев-2015 00:01

[Цитировать]

Великий Север / Great North
-Год выпуска: 2001
Страна: Канада
Жанр: Документальный
Продолжительность: 00:41:30
Перевод: Профессиональный одноголосый
Режиссер: Мартин Дж. Дигнард / Martin J. Dignard, Уиллиям Риив / William Reeve
Русские субтитры: нет-Описание: Великий Север – это дикие горизонты одних из самых захватывающих пейзажей в мире - арктические районы Квебека и Лабрадора, а также севера Швеции. Этот фильм позволит вам открыть для себя земли, что нельзя адекватно описать словами. Бесконечная тишина тундры. Айсберги, величественно дрейфующие в арктических водах. Неистово тревожных карибу и северных оленей. Элегантный балет северного сияния и непрекращающиеся, гениальные усилия северных народов адаптироваться к жизни в суровой, но и богатой среде.-Релиз: by DeTorquemada-Тип релиза: BDRip 720p
Контейнер: MKV
Видео: 1280x720 at 24.000 fps, x264@L4.1, ~17.5 Mbps
Аудио: Russian: 48KHz/16-bit, AC3, 2.0 (L,R) ch, 192 kbps
Аудио 2: English: 48KHz/16-bit, AC3, 3/2 (L,C,R,l,r) + LFE ch, 448 kbps
Субтитры: English, German, Czech, Portuguese, Romanian
Сэмпл-

Скриншоты

MediaInfo

General
Unique ID : 181804761854368368603645996916063853852 (0x88C652D028A9BF2A9B523036B287DD1C)
Complete name : D:\Фильмы\IMAX.Great.North.2001.720p.BluRay.Rus.Eng.HDCLUB.mkv
Format : Matroska
Format version : Version 4 / Version 2
File size : 5.38 GiB
Duration : 41mn 30s
Overall bit rate : 18.5 Mbps
Movie name : Create by DeTorquemada for HDCLUB
Encoded date : UTC 2014-10-15 13:37:20
Writing application : mkvmerge v7.2.0 ('On Every Street') 64bit built on Sep 13 2014 15:52:10
Writing library : libebml v1.3.0 + libmatroska v1.4.1
Video
ID : 1
Format : AVC
Format/Info : Advanced Video Codec
Format profile : High@L4.1
Format settings, CABAC : Yes
Format settings, ReFrames : 7 frames
Codec ID : V_MPEG4/ISO/AVC
Duration : 41mn 30s
Bit rate : 17.5 Mbps
Width : 1 280 pixels
Height : 720 pixels
Display aspect ratio : 16:9
Frame rate mode : Constant
Frame rate : 24.000 fps
Color space : YUV
Chroma subsampling : 4:2:0
Bit depth : 8 bits
Scan type : Progressive
Bits/(Pixel*Frame) : 0.793
Stream size : 5.08 GiB (95%)
Title : Великий Север / IMAX - Great North (2001) - Release for HDCLUB
Writing library : x264 core 138 r2358 9e941d1
Encoding settings : cabac=1 / ref=7 / deblock=1:-3:-3 / analyse=0x3:0x113 / me=umh / subme=10 / psy=1 / psy_rd=1.00:0.00 / mixed_ref=1 / me_range=48 / chroma_me=1 / trellis=2 / 8x8dct=1 / cqm=0 / deadzone=21,11 / fast_pskip=1 / chroma_qp_offset=-2 / threads=6 / lookahead_threads=1 / sliced_threads=0 / nr=0 / decimate=1 / interlaced=0 / bluray_compat=0 / constrained_intra=0 / bframes=3 / b_pyramid=2 / b_adapt=2 / b_bias=0 / direct=1 / weightb=1 / open_gop=0 / weightp=2 / keyint=240 / keyint_min=24 / scenecut=40 / intra_refresh=0 / rc_lookahead=65 / rc=crf / mbtree=0 / crf=17.0 / qcomp=0.60 / qpmin=0 / qpmax=69 / qpstep=4 / vbv_maxrate=50000 / vbv_bufsize=62500 / crf_max=0.0 / nal_hrd=none / ip_ratio=1.40 / pb_ratio=1.30 / aq=1:0.80
Language : English
Default : Yes
Forced : No
Matrix coefficients : BT.709
Audio #1
ID : 2
Format : AC-3
Format/Info : Audio Coding 3
Mode extension : CM (complete main)
Format settings, Endianness : Big
Codec ID : A_AC3
Duration : 41mn 30s
Bit rate mode : Constant
Bit rate : 192 Kbps
Channel(s) : 2 channels
Channel positions : Front: L R
Sampling rate : 48.0 KHz
Bit depth : 16 bits
Compression mode : Lossy
Stream size : 57.0 MiB (1%)
Title : 48KHz/16-bit, AC3, 2.0 (L,R) ch, 192 kbps - Профессиональный oдноголосый
Language : Russian
Default : Yes
Forced : No
Audio #2
ID : 3
Format : AC-3
Format/Info : Audio Coding 3
Mode extension : CM (complete main)
Format settings, Endianness : Big
Codec ID : A_AC3
Duration : 41mn 30s
Bit rate mode : Constant
Bit rate : 448 Kbps
Channel(s) : 6 channels
Channel positions : Front: L C R, Side: L R, LFE
Sampling rate : 48.0 KHz
Bit depth : 16 bits
Compression mode : Lossy
Stream size : 133 MiB (2%)
Title : 48KHz/16-bit, AC3, 3/2 (L,C,R,l,r) + LFE ch, 448 kbps
Language : English
Default : No
Forced : No
Text #1
ID : 4
Format : UTF-8
Codec ID : S_TEXT/UTF8
Codec ID/Info : UTF-8 Plain Text
Title : Subtitles/Captions
Language : English
Default : No
Forced : No
Text #2
ID : 5
Format : UTF-8
Codec ID : S_TEXT/UTF8
Codec ID/Info : UTF-8 Plain Text
Title : Subtitles/Captions
Language : German
Default : No
Forced : No
Text #3
ID : 6
Format : UTF-8
Codec ID : S_TEXT/UTF8
Codec ID/Info : UTF-8 Plain Text
Title : Subtitles/Captions
Language : Czech
Default : No
Forced : No
Text #4
ID : 7
Format : UTF-8
Codec ID : S_TEXT/UTF8
Codec ID/Info : UTF-8 Plain Text
Title : Subtitles/Captions
Language : Portuguese
Default : No
Forced : No
Text #5
ID : 8
Format : UTF-8
Codec ID : S_TEXT/UTF8
Codec ID/Info : UTF-8 Plain Text
Title : Subtitles/Captions
Language : Romanian
Default : No
Forced : No
Menu
00:00:00.000 : en:
00:01:05.632 : en:
00:04:02.342 : en:
00:06:14.907 : en:
00:09:06.946 : en:
00:11:07.266 : en:
00:12:23.943 : en:
00:14:17.323 : en:
00:16:39.398 : en:
00:18:40.686 : en:
00:21:28.487 : en:
00:24:26.097 : en:
00:26:54.045 : en:
00:30:24.689 : en:
00:34:03.408 : en:
00:35:44.709 : en:
00:38:35.713 : en:
00:39:41.379 : en:
00:40:46.410 : en:
00:42:12.696 : en:
00:44:20.257 : en:
00:46:09.600 : en:

Дополнительно

Сохранены оригинальные чаптеры как на Blu-ray.
Раздача от группы:
[Профиль] [ЛС]
Кто просматривает тему:

Форум Тема Автор Размер
Фильмы 2011 года 007: Казино Рояль / Casino Royale (Мартин Кэмпбелл / Martin Campbell) [2006, Германия, США, Великобритания, Чехия, боевик, триллер, приключения, BDRip] Dub [Полная версия / UnCut] painkiller 1.46 GB
Фильмы 2009 года 1066 - Нормандское завоевание Англии / 1066 - The Battle for Middle Earth (Джастин Харди / Justin Hardy) [2009, Великобритания, боевик, военный, история, DVDRip] VO (SDI Media) + Original Eng TorrentFilm 2.19 GB
Фильмы (HD Rips | 720p, 1080p) 12 лет рабства / 12 Years a Slave (Стив МакКуин / Steve McQueen) [2013, США, Великобритания, драма, биография, история, BDRip 720p] Dub + AVO (Сербин) + Sub Rus,Eng + Original Eng reversefile 8.9 GB
Фильмы 2010 года 127 часов / 127 Hours (Дэнни Бойл / Danny Boyle) [2010, США, Великобритания, триллер, биография, драма, BDRip-AVC] Dub + Original (Eng) + Sub (Rus, Eng) TorrentFilm 2.19 GB
Фильмы 2010 года 127 часов / 127 Hours (Дэнни Бойл / Danny Boyle) [2010, США, Великобритания, триллер, биография, драма, BDRip-AVC] Dub + Sub (Rus, Eng) TorrentFilm 1.45 GB
Фильмы 2010 года 127 Часов / 127 Hours (Дэнни Бойл / Danny Boyle) [2010, США, Великобритания, триллер, драма, приключения, биография, BDRip-AVC] Dub + 2x DVO (Кубик в кубе, OzzTV) + AVO (Сербин) + Original + Sub... TorrentFilm 3.79 GB
Документальные HD 20 000 дней на Земле / 20,000 Days on Earth (Ян Форсайт & Джейн Поллард / Iain Forsyth & Jane Pollard) [2014, Великобритания, Документальный, музыкальный, BDRip 1080p] + Sub Rus + Original Eng TorrentFilm 7.45 GB
Фильмы 2011 года 28 недель спустя / 28 Weeks Later (Хуан Карлос Фреснадильо / Juan Carlos Fresnadillo) [2007, Великобритания, Испания, ужасы, триллер, BDRip-AVC] Dub + DVO (П. Гланц и И. Королева) + Original (eng) +... TorrentFilm 4.11 GB
Показать сообщения:    

Текущее время: Сегодня 04:49

Часовой пояс: GMT



Вы не можете начинать темы
Вы не можете отвечать на сообщения
Вы не можете редактировать свои сообщения
Вы не можете удалять свои сообщения
Вы не можете голосовать в опросах
Вы не можете прикреплять файлы к сообщениям
Вы не можете скачивать файлы