Великий мастер / Yi dai zong shi (2013) BDRip 1080p

 
Автор Сообщение

Russian Mafia ®

Пол:

Стаж: 2 года 3 месяца

Сообщений: 4249



Награды: 10 (Подробнее)

Top Releaser 4 (Количество: 1) Top Releaser 3 (Количество: 1) Mega Seeder 3 (Количество: 1)
Торрент-статистика

Создавать темы 18-Авг-2016 15:21

[Цитировать]

Информация о фильме
Название: Великий мастер
Оригинальное название: Yi dai zong shi
Год выхода: 2013
Жанр: боевик, драма
Режиссер: Вонг Кар-Вай
В ролях: Чжан Цзыи, Тони Люн Чу Вай, Кунг Ле, Сон Хё Гю, Чжан Чжэнь, Юэнь Ву-Пин, Сю-Люн Люн, Чеунг-Ян Юэнь, Джана Хо, Бэньшань Жао
О фильме: Основатель старейшей Школы боевых искусств намерен уйти на покой и передать дела достойному преемнику. Но самый лучший его ученик вынашивает куда более амбициозные планы — он намерен объединить все разрозненные школы в одну. С этой целью он вызывает на поединок лидера каждой школы и, одерживая победу раз за разом, объединяет все школы. Последней остается школа его умершего учителя, отстоять память которого на поединок выходит его дочь, тайно влюбленная в своего соперника…

Выпущено: Block 2 Pictures
Продолжительность: 02:02:50
Перевод: Дублированный (лицензия)
Файл
Кодек: x264
Качество: BDRip (источник: Blu-ray Disc)
Видео: 1920x856 (2,25:1), 24 fps, 7960 kbps
Аудио #1: AC-3, 6 ch, 640 kbps (Rus)
Аудио #2: AC-3, 6 ch, 448 kbps (Chi)
Субтитры: Русские
Скачать: сэмпл
Скриншоты

MI

Общее
Уникальный идентификатор : 252173193847114701449152484283141133646 (0xBDB6CA5F8805BA6DBEB1060286F9154E)
Полное имя : The.Grandmaster.2013.BDRip.1080p.Rus.Chi.mkv
Формат : Matroska
Версия формата : Version 2
Размер файла : 7,76 Гбайт
Продолжительность : 2 ч. 2 м.
Общий поток : 9047 Кбит/сек
Название фильма : Великий мастер / Yi dai zong shi (2013)
Дата кодирования : UTC 2013-07-05 16:31:52
Программа кодирования : mkvmerge v5.8.0 ('No Sleep / Pillow') built on Sep 2 2012 15:37:04
Библиотека кодирования : libebml v1.2.3 + libmatroska v1.3.0
Видео
Идентификатор : 1
Формат : AVC
Формат/Информация : Advanced Video Codec
Профиль формата : High@L4.1
Параметр CABAC формата : Да
Параметр ReFrames формата : 5 кадров
Идентификатор кодека : V_MPEG4/ISO/AVC
Продолжительность : 2 ч. 2 м.
Битрейт : 7960 Кбит/сек
Ширина : 1920 пикселей
Высота : 856 пикселей
Соотношение сторон : 2,25:1
Частота кадров : 24,000 кадра/сек
Цветовое пространство : YUV
Субдискретизация насыщенности : 4:2:0
Битовая глубина : 8 бит
Тип развёртки : Прогрессивная
Бит/(Пиксели*Кадры) : 0.202
Размер потока : 6,67 Гбайт (86%)
Заголовок : Release by AlexKa
Библиотека кодирования : x264 core 133 r2334 a3ac64b
Настройки программы : cabac=1 / ref=5 / deblock=1:-3:-3 / analyse=0x3:0x133 / me=umh / subme=11 / psy=1 / psy_rd=1.00:0.00 / mixed_ref=1 / me_range=32 / chroma_me=1 / trellis=2 / 8x8dct=1 / cqm=0 / deadzone=21,11 / fast_pskip=0 / chroma_qp_offset=-2 / threads=12 / lookahead_threads=2 / sliced_threads=0 / nr=0 / decimate=0 / interlaced=0 / bluray_compat=0 / constrained_intra=0 / bframes=7 / b_pyramid=2 / b_adapt=2 / b_bias=0 / direct=3 / weightb=1 / open_gop=0 / weightp=2 / keyint=240 / keyint_min=24 / scenecut=40 / intra_refresh=0 / rc=2pass / mbtree=0 / bitrate=7960 / ratetol=1.0 / qcomp=0.60 / qpmin=0 / qpmax=69 / qpstep=4 / cplxblur=20.0 / qblur=0.5 / ip_ratio=1.40 / pb_ratio=1.30 / aq=1:0.90
Язык : Chinese
Аудио #1
Идентификатор : 2
Формат : AC-3
Формат/Информация : Audio Coding 3
Расширение режима : CM (complete main)
Идентификатор кодека : A_AC3
Продолжительность : 2 ч. 2 м.
Вид битрейта : Постоянный
Битрейт : 640 Кбит/сек
Каналы : 6 каналов
Расположение каналов : Front: L C R, Side: L R, LFE
Частота : 48,0 КГц
Битовая глубина : 16 бит
Метод сжатия : С потерями
Размер потока : 562 Мбайт (7%)
Заголовок : Rus
Язык : Russian
Аудио #2
Идентификатор : 3
Формат : AC-3
Формат/Информация : Audio Coding 3
Расширение режима : CM (complete main)
Идентификатор кодека : A_AC3
Продолжительность : 2 ч. 2 м.
Вид битрейта : Постоянный
Битрейт : 448 Кбит/сек
Каналы : 6 каналов
Расположение каналов : Front: L C R, Side: L R, LFE
Частота : 48,0 КГц
Битовая глубина : 16 бит
Метод сжатия : С потерями
Размер потока : 394 Мбайт (5%)
Заголовок : Chi
Язык : Chinese
Текст
Идентификатор : 4
Формат : UTF-8
Идентификатор кодека : S_TEXT/UTF8
Идентификатор кодека/Информация : UTF-8 Plain Text
Заголовок : Rus
Язык : Russian
Меню
00:00:00.000 : :Chapter 01
00:10:15.500 : :Chapter 02
00:19:56.875 : :Chapter 03
00:30:06.041 : :Chapter 04
00:41:55.750 : :Chapter 05
00:50:55.708 : :Chapter 06
01:00:40.791 : :Chapter 07
01:10:32.500 : :Chapter 08
01:20:55.291 : :Chapter 09
01:33:19.625 : :Chapter 10
01:45:44.791 : :Chapter 11
01:51:29.916 : :Chapter 12
02:02:49.708 : :Chapter 13

x264

x264 [info]: frame I:1089 Avg QP:13.52 size:122474
x264 [info]: frame P:51433 Avg QP:16.63 size: 70894
x264 [info]: frame B:124353 Avg QP:18.71 size: 28547
x264 [info]: consecutive B-frames: 3.1% 12.8% 8.5% 51.3% 17.5% 3.6% 1.6% 1.6%
[Профиль] [ЛС]
Кто просматривает тему:

Форум Тема Автор Размер
365 365: Мебель Версаля. От Короля-Солнце до Великой французской революции / Le Mobilier de Versailles. Du Roi-Soleil à la Révolution (Фабрис Урлье / Fabrice Hourlier) [2014 г., Документальный, история,... skorpionN 744 MB
История древнего мира BBC: Египет. Великое открытие / Egypt. Rediscovering a Lost World [серии 1-6 из ] (Фердинанд Фэйрфакс / Ferdinand Fairfax) [2005 г., Документально-художественный, альтернати... skorpionN 4.17 GB
BBC BBC: Тайны вселенной: Великие ученые своими словами / Secrets Of The Universe: Great Scientists In Their Own Words (Suzy Boyles) [2014 г., Документальный, научно-познавательный, биографический,... skorpionN 702 MB
Viasat History Viasat History: Затерянный мир Александра Великого (1-6 серии из 6) / Alexander’s Lost World (Девид Адамс / David Adams) [2013, Документальный, альтернативная история, псевдоистория HDTVRip 720p] TorrentFilm 9.4 GB
Viasat History Viasat History: Разоблаченные монументы (Великие памятники архитектуры) / Monuments revealed [сезон 1 серия 1-3 из 3] (Olivier Julien, Pascal Cuissot, Gary Glassman) [2014 г., Документ... skorpionN 3.53 GB
Биографии и личности Александр Великий / Alexander der Große [серии 1-2 из 2] (Martin Carazo Mendez, Christian Twente) [2014 г., Документально-игровой, история, SATRip] skorpionN 1.21 GB
Трейлеры Великая стена / The Great Wall (2016) WEBRip-1080p | Трейлер достали все 115 MB
Биографии и личности Гений Великобритании: Ученые, которые изменили мир / Genius of Britain: The Scientists World [серии 1-5 из 5] (Кристофер Сайкс, Джонатан Руд) [2010 г., Документальный, познавательный, история, SATRip] skorpionN 3.56 GB
Показать сообщения:    

Текущее время: Сегодня 22:56

Часовой пояс: GMT



Вы не можете начинать темы
Вы не можете отвечать на сообщения
Вы не можете редактировать свои сообщения
Вы не можете удалять свои сообщения
Вы не можете голосовать в опросах
Вы не можете прикреплять файлы к сообщениям
Вы не можете скачивать файлы