Великая тысяча / Eravamo solo mille (Стефано Реали / Stefano Reali) [2007, Италия, драма, DVDRip] MVO (СВ-Дубль) + Original Ita

 
Автор Сообщение

TorrentFilm ®

Пол:

Стаж: 2 года 7 месяцев

Сообщений: 7764



Награды: Нет

Торрент-статистика

Создавать темы 29-Янв-2016 00:08

[Цитировать]

Великая тысяча / Eravamo solo mille
Страна: Италия
Студия: Cosmo Production
Жанр: драма
Год выпуска: 2007
Продолжительность: 01:47:25 + 01:55:55
Перевод: Профессиональный (многоголосый закадровый) - Фирма "СВ-Дубль" по заказу ГТРК "Культура"
Cубтитры: нет
Оригинальная аудиодорожка: итальянский
Режиссер: Стефано Реали / Stefano Reali
В ролях: Даниэле Печчи, Кристиана Филанджьери, Дэвид Коко, Гаэтано Амато, Пино Карузо, Иван Кастильоне, Марина Джулия Кавалли, Ванни Корбеллини, Араба Делль’Утри, Анджело Мареска ...
Описание: XIX век. Италия раздроблена на множество мелких государств. В 1860 году Джузеппе Гарибальди собирает отряд, насчитывающий всего тысячу человек, и намеревается совершить то, что уже много веков кажется невыполнимым — вновь сделать Италию единой. Невзирая на кажущуюся невозможность успеха, им это удаётся. «Эти оборванцы объединили Италию!» — восклицает в финале изумлённый офицер, видя результат их самоотверженной борьбы.
Доп. информация: Рип сделан из этого 2xDVD9-- --Eravamo Solo Mille (2007)_DVDRip_Sample_.avi--Качество видео: DVDRip
Формат видео: AVI
Видео: 704x432 (1.63:1), 25 fps, XviD build 50 ~2354 kbps avg, 0.31 bit/pixel
Аудио 1: 48 kHz, AC3 Dolby Digital, 2/0 (L,R) ch, ~192 kbps, Русский
Аудио 2: 48 kHz, AC3 Dolby Digital, 2/0 (L,R) ch, ~192 kbps, Итальянский

AviInfo

File: Eravamo Solo Mille (2007)_DVDRip_Part - 1_.avi
Title: Eravamo Solo Mille (2007)
Author: Stefano Reali
Copyleft: Ripped_by_rjhlb777
Genre: Drama
Category: Movie
Comment: MVO (Фирма "СВ-Дубль" по заказу ГТРК "Культура") + Original ITA
FileSize: 2109.95 Mb ( 2 212 446 208 bytes )
Play length: 01:47:25.439 (161136 frames)
Subtitles: Not Present
Video: 704x432 (1.63:1), 25 fps, XviD build 50 ~2354 kbps avg, 0.31 bit/pixel
Audio #1: 48 kHz, AC3 Dolby Digital, 2/0 (L,R) ch, ~192 kbps
Audio #2: 48 kHz, AC3 Dolby Digital, 2/0 (L,R) ch, ~192 kbps
========================================================
========================================================
File: Eravamo Solo Mille (2007)_DVDRip_Part - 2_.avi
Title: Eravamo Solo Mille (2007)
Author: Stefano Reali
Copyleft: Ripped_by_rjhlb777
Genre: Drama
Category: Movie
Comment: MVO (Фирма "СВ-Дубль" по заказу ГТРК "Культура") + Original ITA
FileSize: 2115.13 Mb ( 2 217 877 504 bytes )
Play length: 01:55:55.520 (173888 frames)
Subtitles: Not Present
Video: 704x432 (1.63:1), 25 fps, XviD build 50 ~2159 kbps avg, 0.28 bit/pixel
Audio #1: 48 kHz, AC3 Dolby Digital, 2/0 (L,R) ch, ~192 kbps
Audio #2: 48 kHz, AC3 Dolby Digital, 2/0 (L,R) ch, ~192 kbps

MediaInfo

General
Complete name : C:\Temp\Eravamo Solo Mille (2007)_DVDRip_\Eravamo Solo Mille (2007)_DVDRip_Part - 1_.avi
Format : AVI
Format/Info : Audio Video Interleave
Format profile : OpenDML
File size : 2.06 GiB
Duration : 1h 47mn
Overall bit rate : 2 746 Kbps
Movie name : Eravamo Solo Mille (2007)
Director : Stefano Reali
Genre : Drama
Writing application : VirtualDubMod 1.5.10.3 | www.virtualdub-fr.org || (build 2550/release)
Original source form/Name : Movie
Copyright : Ripped_by_rjhlb777
Comment : MVO (Фирма "СВ-Дубль" по заказу ГТРК "Культура") + Original ITA
Video
ID : 0
Format : MPEG-4 Visual
Format profile : Advanced Simple@L5
Format settings, BVOP : 1
Format settings, QPel : No
Format settings, GMC : No warppoints
Format settings, Matrix : Default (MPEG)
Codec ID : XVID
Codec ID/Hint : XviD
Duration : 1h 47mn
Bit rate : 2 343 Kbps
Width : 704 pixels
Height : 432 pixels
Display aspect ratio : 16:10
Frame rate : 25.000 fps
Color space : YUV
Chroma subsampling : 4:2:0
Bit depth : 8 bits
Scan type : Progressive
Compression mode : Lossy
Bits/(Pixel*Frame) : 0.308
Stream size : 1.76 GiB (85%)
Writing library : XviD 1.2.1 (UTC 2008-12-04)
Audio #1
ID : 1
Format : AC-3
Format/Info : Audio Coding 3
Mode extension : CM (complete main)
Format settings, Endianness : Big
Codec ID : 2000
Duration : 1h 47mn
Bit rate mode : Constant
Bit rate : 192 Kbps
Channel(s) : 2 channels
Channel positions : Front: L R
Sampling rate : 48.0 KHz
Compression mode : Lossy
Stream size : 148 MiB (7%)
Alignment : Split accross interleaves
Interleave, duration : 40 ms (1.00 video frame)
Interleave, preload duratio : 500 ms
Audio #2
ID : 2
Format : AC-3
Format/Info : Audio Coding 3
Mode extension : CM (complete main)
Format settings, Endianness : Big
Codec ID : 2000
Duration : 1h 47mn
Bit rate mode : Constant
Bit rate : 192 Kbps
Channel(s) : 2 channels
Channel positions : Front: L R
Sampling rate : 48.0 KHz
Compression mode : Lossy
Stream size : 148 MiB (7%)
Alignment : Split accross interleaves
Interleave, duration : 40 ms (1.00 video frame)
Interleave, preload duratio : 500 ms
=================================================================
=================================================================
General
Complete name : C:\Temp\Eravamo Solo Mille (2007)_DVDRip_\Eravamo Solo Mille (2007)_DVDRip_Part - 2_.avi
Format : AVI
Format/Info : Audio Video Interleave
Format profile : OpenDML
File size : 2.07 GiB
Duration : 1h 55mn
Overall bit rate : 2 551 Kbps
Movie name : Eravamo Solo Mille (2007)
Director : Stefano Reali
Genre : Drama
Writing application : VirtualDubMod 1.5.10.3 | www.virtualdub-fr.org || (build 2550/release)
Original source form/Name : Movie
Copyright : Ripped_by_rjhlb777
Comment : MVO (Фирма "СВ-Дубль" по заказу ГТРК "Культура") + Original ITA
Video
ID : 0
Format : MPEG-4 Visual
Format profile : Advanced Simple@L5
Format settings, BVOP : 1
Format settings, QPel : No
Format settings, GMC : No warppoints
Format settings, Matrix : Default (MPEG)
Codec ID : XVID
Codec ID/Hint : XviD
Duration : 1h 55mn
Bit rate : 2 148 Kbps
Width : 704 pixels
Height : 432 pixels
Display aspect ratio : 16:10
Frame rate : 25.000 fps
Color space : YUV
Chroma subsampling : 4:2:0
Bit depth : 8 bits
Scan type : Progressive
Compression mode : Lossy
Bits/(Pixel*Frame) : 0.283
Stream size : 1.74 GiB (84%)
Writing library : XviD 1.2.1 (UTC 2008-12-04)
Audio #1
ID : 1
Format : AC-3
Format/Info : Audio Coding 3
Mode extension : CM (complete main)
Format settings, Endianness : Big
Codec ID : 2000
Duration : 1h 55mn
Bit rate mode : Constant
Bit rate : 192 Kbps
Channel(s) : 2 channels
Channel positions : Front: L R
Sampling rate : 48.0 KHz
Compression mode : Lossy
Stream size : 159 MiB (8%)
Alignment : Split accross interleaves
Interleave, duration : 40 ms (1.00 video frame)
Interleave, preload duratio : 500 ms
Audio #2
ID : 2
Format : AC-3
Format/Info : Audio Coding 3
Mode extension : CM (complete main)
Format settings, Endianness : Big
Codec ID : 2000
Duration : 1h 55mn
Bit rate mode : Constant
Bit rate : 192 Kbps
Channel(s) : 2 channels
Channel positions : Front: L R
Sampling rate : 48.0 KHz
Compression mode : Lossy
Stream size : 159 MiB (8%)
Alignment : Split accross interleaves
Interleave, duration : 40 ms (1.00 video frame)
Interleave, preload duratio : 500 ms
[Профиль] [ЛС]
Кто просматривает тему:

Форум Тема Автор Размер
Фильмы 2011 года 007: Казино Рояль / Casino Royale (Мартин Кэмпбелл / Martin Campbell) [2006, Германия, США, Великобритания, Чехия, боевик, триллер, приключения, BDRip] Dub [Полная версия / UnCut] painkiller 1.46 GB
Фильмы 2009 года 1066 - Нормандское завоевание Англии / 1066 - The Battle for Middle Earth (Джастин Харди / Justin Hardy) [2009, Великобритания, боевик, военный, история, DVDRip] VO (SDI Media) + Original Eng TorrentFilm 2.19 GB
Фильмы (HD Rips | 720p, 1080p) 12 лет рабства / 12 Years a Slave (Стив МакКуин / Steve McQueen) [2013, США, Великобритания, драма, биография, история, BDRip 720p] Dub + AVO (Сербин) + Sub Rus,Eng + Original Eng reversefile 8.9 GB
Фильмы 2010 года 127 часов / 127 Hours (Дэнни Бойл / Danny Boyle) [2010, США, Великобритания, триллер, биография, драма, BDRip-AVC] Dub + Original (Eng) + Sub (Rus, Eng) TorrentFilm 2.19 GB
Фильмы 2010 года 127 часов / 127 Hours (Дэнни Бойл / Danny Boyle) [2010, США, Великобритания, триллер, биография, драма, BDRip-AVC] Dub + Sub (Rus, Eng) TorrentFilm 1.45 GB
Фильмы 2010 года 127 Часов / 127 Hours (Дэнни Бойл / Danny Boyle) [2010, США, Великобритания, триллер, драма, приключения, биография, BDRip-AVC] Dub + 2x DVO (Кубик в кубе, OzzTV) + AVO (Сербин) + Original + Sub... TorrentFilm 3.79 GB
Документальные HD 20 000 дней на Земле / 20,000 Days on Earth (Ян Форсайт & Джейн Поллард / Iain Forsyth & Jane Pollard) [2014, Великобритания, Документальный, музыкальный, BDRip 1080p] + Sub Rus + Original Eng TorrentFilm 7.45 GB
Фильмы 2011 года 28 недель спустя / 28 Weeks Later (Хуан Карлос Фреснадильо / Juan Carlos Fresnadillo) [2007, Великобритания, Испания, ужасы, триллер, BDRip-AVC] Dub + DVO (П. Гланц и И. Королева) + Original (eng) +... TorrentFilm 4.11 GB
Показать сообщения:    

Текущее время: Сегодня 10:43

Часовой пояс: GMT



Вы не можете начинать темы
Вы не можете отвечать на сообщения
Вы не можете редактировать свои сообщения
Вы не можете удалять свои сообщения
Вы не можете голосовать в опросах
Вы не можете прикреплять файлы к сообщениям
Вы не можете скачивать файлы