Великая одиссея человечества / Great Human Odyssey [серии 1-3 из 3] (Найоб Томпсон) [2015 г., Документальный, история, SATRip]

 
Автор Сообщение

skorpionN ®

Пол:

Стаж: 2 года 3 месяца

Сообщений: 721



Награды: 4 (Подробнее)

Mega Seeder 2 (Количество: 1) Mega Seeder 3 (Количество: 1) Top Releaser 2 (Количество: 1)
Торрент-статистика

Создавать темы 14-Дек-2015 13:40

[Цитировать]

Великая одиссея человечества / Great Human Odyssey [серии 1-3 из 3]
Год выпуска: 2015
Страна: Канада, CBC ClearWater
Жанр: Документальный, история
Продолжительность: 3x ~ 00:52:42
Перевод: Профессиональный (одноголосый), компания "Видеофильм ТВ"
Режиссер: Найоб Томпсон
В ролях: Ведущий: Найоб Томпсон
Описание: Как и другие виды человека, когда-либо существовавшие на нашей планете, хомо сапиенс должен был вымереть. Каким образом мы выжили, оказавшись на грани исчезновения? Как появился язык и искусство? И что ученые называют "колыбелью человеческого разума"?
Список серий:
01. Зарождение / Rise of a Species
02. Умные обезьяны / The Adaptable Ape
03. У финишной черты / Journey’s End

Качество: SATRip
Формат: AVI
Видео кодек: XviD
Аудио кодек: AC3
Видео: 720x400 25fps ~1800 Kbps
Аудио: AC3 2ch, 48kHz, 192 kbps

Скриншоты

MediaInfo:

Format : AVI
Format/Info : Audio Video Interleave
File size : 749 MiB
Duration : 52mn 43s
Overall bit rate : 1 985 Kbps
Writing application : TMPGEnc Video Mastering Works 5 Version. 5.0.6.38
Writing library : TMPGEnc Video Mastering Works 5 Version. 5.0.6.38
Video
ID : 0
Format : MPEG-4 Visual
Format profile : Advanced Simple@L5
Format settings, BVOP : 2
Format settings, QPel : No
Format settings, GMC : No warppoints
Format settings, Matrix : Default (H.263)
Muxing mode : Packed bitstream
Codec ID : XVID
Codec ID/Hint : XviD
Duration : 52mn 43s
Bit rate : 1 786 Kbps
Width : 720 pixels
Height : 400 pixels
Display aspect ratio : 16:9
Frame rate : 25.000 fps
Color space : YUV
Chroma subsampling : 4:2:0
Bit depth : 8 bits
Scan type : Progressive
Compression mode : Lossy
Bits/(Pixel*Frame) : 0.248
Stream size : 674 MiB (90%)
Writing library : XviD 73
Audio
ID : 1
Format : AC-3
Format/Info : Audio Coding 3
Mode extension : CM (complete main)
Format settings, Endianness : Big
Codec ID : 2000
Duration : 52mn 43s
Bit rate mode : Constant
Bit rate : 192 Kbps
Channel(s) : 2 channels
Channel positions : Front: L R
Sampling rate : 48.0 KHz
Bit depth : 16 bits
Compression mode : Lossy
Stream size : 72.4 MiB (10%)
Alignment : Aligned on interleaves
Interleave, duration : 240 ms (6.00 video frames)
Interleave, preload duration : 224 ms

Внимание! Раздача ведётся путём добавления новых выпусков

Внимание! Раздача ведётся путём добавления новых выпусков; при каждом добавлении создаётся новый торрент. Чтобы начать докачку нового выпуска, пользователям необходимо сделать следующее:
(1) остановить скачивание,
(2) удалить старый торрент у себя из клиента (старые серии удалять не надо),
(3) скачать новый торрент и запустить его у себя в клиенте вместо старого, при этом указать клиенту путь в старую папку куда и должно происходить скачивание новых выпусков.
Ваш клиент при этом должен произвести хеширование (проверку) старой папки (если не производит сам - помогите ему сделать это). В результате он будет докачивать только те выпуски, которых у Вас ещё нет. Старые выпуски при этом не удаляются, а продолжают раздаваться!
Eсли Вы уже удалили старые выпуски, то предотвратить их повторную закачку можно, сняв галочки в соответствующих местах при запуске нового торрента. По возможности, желательно не удалять старые выпуски как можно дольше, чтобы релизёр не только продолжал раздавать старые выпуски, но и смог сконцентрироваться на новых.
Великая одиссея человечества / Great Human Odyssey [серии 1-3 из 3] SATRip]
Великая одиссея человечества / Great Human Odyssey [серии 1-3 из 3] WEB-DLRip 720p]


Последний раз редактировалось: skorpionN (2016-04-11 20:43), всего редактировалось 3 раз(а)
[Профиль] [ЛС]

skorpionN ®

Пол:

Стаж: 2 года 3 месяца

Сообщений: 721



Награды: 4 (Подробнее)

Mega Seeder 1 (Количество: 1) Mega Seeder 3 (Количество: 1) Top Releaser 2 (Количество: 1)
Торрент-статистика

Создавать темы 14-Дек-2015 16:52 (спустя 3 часа)

[Цитировать]

Сезон окончен
[Профиль] [ЛС]

Таисия

Стаж: 2 года 3 месяца

Сообщений: 38



Награды: 1 (Подробнее)

Girls (Количество: 1)
Торрент-статистика

Создавать темы 15-Дек-2015 16:13 (спустя 23 часа)

[Цитировать]

СПАСИБО ....Качаю ...И как мы выжили ?? Я поражаюсь , а главное ЗАЧЕМ ?? Для чего ?? Чтобы ЧТО ???
[Профиль] [ЛС]
Кто просматривает тему:

Форум Тема Автор Размер
365 365: Мебель Версаля. От Короля-Солнце до Великой французской революции / Le Mobilier de Versailles. Du Roi-Soleil à la Révolution (Фабрис Урлье / Fabrice Hourlier) [2014 г., Документальный, история,... skorpionN 744 MB
История древнего мира BBC: Египет. Великое открытие / Egypt. Rediscovering a Lost World [серии 1-6 из ] (Фердинанд Фэйрфакс / Ferdinand Fairfax) [2005 г., Документально-художественный, альтернати... skorpionN 4.17 GB
BBC BBC: Тайны вселенной: Великие ученые своими словами / Secrets Of The Universe: Great Scientists In Their Own Words (Suzy Boyles) [2014 г., Документальный, научно-познавательный, биографический,... skorpionN 702 MB
Viasat History Viasat History: Затерянный мир Александра Великого (1-6 серии из 6) / Alexander’s Lost World (Девид Адамс / David Adams) [2013, Документальный, альтернативная история, псевдоистория HDTVRip 720p] TorrentFilm 9.4 GB
Viasat History Viasat History: Разоблаченные монументы (Великие памятники архитектуры) / Monuments revealed [сезон 1 серия 1-3 из 3] (Olivier Julien, Pascal Cuissot, Gary Glassman) [2014 г., Документ... skorpionN 3.53 GB
Биографии и личности Александр Великий / Alexander der Große [серии 1-2 из 2] (Martin Carazo Mendez, Christian Twente) [2014 г., Документально-игровой, история, SATRip] skorpionN 1.21 GB
Трейлеры Великая стена / The Great Wall (2016) WEBRip-1080p | Трейлер достали все 115 MB
Биографии и личности Гений Великобритании: Ученые, которые изменили мир / Genius of Britain: The Scientists World [серии 1-5 из 5] (Кристофер Сайкс, Джонатан Руд) [2010 г., Документальный, познавательный, история, SATRip] skorpionN 3.56 GB
Показать сообщения:    

Текущее время: Сегодня 10:42

Часовой пояс: GMT



Вы не можете начинать темы
Вы не можете отвечать на сообщения
Вы не можете редактировать свои сообщения
Вы не можете удалять свои сообщения
Вы не можете голосовать в опросах
Вы не можете прикреплять файлы к сообщениям
Вы не можете скачивать файлы