Везуха! Китовая любовь (Леонид Шмельков) [2011, Анимационный фильм, DVDScreener]

 
Автор Сообщение

TorrentFilm ®

Пол:

Стаж: 2 года

Сообщений: 7741



Награды: Нет

Торрент-статистика

Создавать темы 22-Дек-2014 02:00

[Цитировать]

Везуха! Китовая любовь
Страна: Россия
Жанр: Анимационный фильм
Продолжительность: 00:05:00
Год выпуска: 2011
Русские субтитры: нет
Режиссёр: Леонид Шмельков
Описание: Восемь щенят пса по кличке Кит чуть не разнесли весь дом, если бы не друг семьи дядя Женя с удивительными способностями...
Доп. информация: Лучший анимационный фильм из сериала Открытый фестиваль анимационного кино, Суздаль (Россия), 2012
Международный кинофестиваль им. А. Тарковского 'Зеркало', Иваново (Россия), 2012
Большой фестиваль мультфильмов, Москва (Россия), 2012
Московский международный кинофестиваль (ММКФ), Москва (Россия), 2012
MIPCOM : The world’s entertainment content market, Канн (Франция), 2012
Фестиваль русского кино в Лондоне, Лондон (Великобритания), 2012
Качество: DVDScreener
Формат: AVI
Видео: DIVX, 720x416, 25fps, 1650kbps
Аудио: MPEG Layer 3, 48kHz, 2ch, 192kbps
Субтитры: отсутствуют

Подробные технические данные

Полное имя : Китовая любовь. Везуха!.aviФормат : AVIФормат/Информация : Audio Video InterleaveРазмер файла : 66,3 МбайтПродолжительность : 5 м. 0 с.Общий поток : 1852 Кбит/секПрограмма кодирования : VirtualDubMod 1.5.10.3 | www.virtualdub-fr.org || (build 2550/release)Библиотека кодирования : VirtualDubMod build 2550/release
ВидеоИдентификатор : 0Формат : MPEG-4 VisualПрофиль формата : Advanced Simple@L5Параметр BVOP формата : 1Параметр QPel формата : НетПараметр GMC формата : Без точки переходаПараметр матрицы формата : Default (H.263)Идентификатор кодека : DIVXИдентификатор кодека/Информация : Project MayoИдентификатор кодека/Подсказка : DivX 4Продолжительность : 5 м. 0 с.Битрейт : 1650 Кбит/секШирина : 720 пикселейВысота : 416 пикселейСоотношение сторон : 1,731Частота кадров : 25,000 кадров/секЦветовое пространство : YUVСубдискретизация насыщенности : 4:2:0Битовая глубина : 8 битТип развёртки : ПрогрессивнаяМетод сжатия : С потерямиБит/(Пиксели*Кадры) : 0.220Размер потока : 59,1 Мбайт (89%)Библиотека кодирования : XviD 1.2.1 (UTC 2008-12-04)
АудиоИдентификатор : 1Формат : MPEG AudioВерсия формата : Version 1Профиль формата : Layer 3Идентификатор кодека : 55Идентификатор кодека/Подсказка : MP3Продолжительность : 5 м. 0 с.Вид битрейта : ПостоянныйБитрейт : 192 Кбит/секКаналы : 2 каналаЧастота : 48,0 КГцМетод сжатия : С потерямиРазмер потока : 6,87 Мбайт (10%)Выравнивание : Соединение по промежуткамПродолжительность промежутка : 40 мс. (1,00 видеокадр)Время предзагрузки промежутка : 504 мс.Библиотека кодирования : LAME3.99rНастройки программы : -m s -V 4 -q 0 -lowpass 18.6 -b 192

Скриншоты



[Профиль] [ЛС]
Кто просматривает тему:

Показать сообщения:    

Текущее время: Сегодня 04:28

Часовой пояс: GMT



Вы не можете начинать темы
Вы не можете отвечать на сообщения
Вы не можете редактировать свои сообщения
Вы не можете удалять свои сообщения
Вы не можете голосовать в опросах
Вы не можете прикреплять файлы к сообщениям
Вы не можете скачивать файлы