Везунчик / Lucky You (Кертис Хэнсон / Curtis Hanson) [2007, США, Германия, Австралия, Комедия, мелодрама, SATRip] [Open Matte] MVO

 
Автор Сообщение

TorrentFilm ®

Пол:

Стаж: 2 года

Сообщений: 7741



Награды: Нет

Торрент-статистика

Создавать темы 17-Фев-2016 00:08

[Цитировать]

Везунчик / Lucky You / Open Matte
Страна: США, Германия, Австралия
Жанр: Комедия, мелодрама
Год выпуска: 2007
Продолжительность: 01:58:20
Перевод: Профессиональный (многоголосый закадровый)
Cубтитры: нет
Оригинальная аудиодорожка: нет
Режиссер: Кертис Хэнсон / Curtis Hanson
В ролях: Эрик Бана, Дрю Берримор, Роберт Дюваль, Дебра Мессинг, Горацио Санз, Жан Смарт, Кельвин Хан Йи, Чарльз Мартин Смит, Роберт Дауни Мл., Майкл Шэннон
Описание: Действие фильма разворачивается в мире профессионального покера. Главный герой ленты — игрок Хак Чивер, который не жалеет сил для победы и не боится рисковать. В личной жизни он, напротив, ведет себя разумно и осторожно, избегая эмоциональных порывов и каких-либо обязательств. Когда же Хак берется выиграть чемпионат мира по покеру 2003 года, а заодно и очаровать молодую певицу из Бейкерсфилда Билли Оффер, он встречает на своем пути только одно препятствие — в лице своего отца, легендарного игрока в покер, бросившего мать Хака много лет назад. В итоге отец и сын становятся соперниками не только в жизни, но и за карточным столом. По мере приближения финальной схватки Хак приходит к осознанию одной простой истины: чтобы одерживать победы и в жизни, и в игре, необходимо соединить свои человеческие достоинства с талантом игрока…
Доп. информация: Наполнение кадра отличается от HDTV http://screenshotcomparison.com/comparison/161605
Сэмпл: http://multi-up.com/1089180
Качество видео: SATRip
Формат видео: AVI
Видео: MPEG4, XviD, 720x400 (16:9), 25.000 fps, 1 556 Kbps (0.216 bit/pixel)
Аудио: AC-3, 48.0 KHz, 2 ch, 192 Kbps, CBR

MediaInfo

Общее
Полное имя : N:\Везунчик.avi
Формат : AVI
Формат/Информация : Audio Video Interleave
Размер файла : 1,45 Гбайт
Продолжительность : 1 ч. 58 м.
Общий поток : 1758 Кбит/сек
Название фильма : Везунчик / Lucky You (2007)
Программа кодирования : VirtualDubMod 1.5.10.2 (build 2540/release)
Библиотека кодирования : VirtualDubMod build 2540/release
Авторское право : miha2154
Видео
Идентификатор : 0
Формат : MPEG-4 Visual
Профиль формата : Advanced Simple@L5
Параметр BVOP формата : 1
Параметр QPel формата : Нет
Параметр GMC формата : Без точки перехода
Параметр матрицы формата : Выборочная
Идентификатор кодека : XVID
Идентификатор кодека/Подсказка : XviD
Продолжительность : 1 ч. 58 м.
Битрейт : 1556 Кбит/сек
Ширина : 720 пикселей
Высота : 400 пикселей
Соотношение сторон : 16:9
Частота кадров : 25,000 кадров/сек
Цветовое пространство : YUV
Субдискретизация насыщенности : 4:2:0
Битовая глубина : 8 бит
Тип развёртки : Прогрессивная
Метод сжатия : С потерями
Бит/(Пиксели*Кадры) : 0.216
Размер потока : 1,29 Гбайт (89%)
Библиотека кодирования : XviD 65
Аудио
Идентификатор : 1
Формат : AC-3
Формат/Информация : Audio Coding 3
Расширение режима : CM (complete main)
Параметр Endianness формата : Big
Идентификатор кодека : 2000
Продолжительность : 1 ч. 58 м.
Вид битрейта : Постоянный
Битрейт : 192 Кбит/сек
Каналы : 2 канала
Расположение каналов : Front: L R
Частота : 48,0 КГц
Частота кадров : 31,250 кадров/сек (1536 spf)
Метод сжатия : С потерями
Размер потока : 163 Мбайт (11%)
Выравнивание : Разделение по промежуткам
Продолжительность промежутка : 40 мс. (1,00 видеокадр)
Время предзагрузки промежутка : 500 мс.
Заголовок : Профессиональный (многоголосый закадровый)

Скриншоты


[Профиль] [ЛС]
Кто просматривает тему:

Показать сообщения:    

Текущее время: Сегодня 14:45

Часовой пояс: GMT



Вы не можете начинать темы
Вы не можете отвечать на сообщения
Вы не можете редактировать свои сообщения
Вы не можете удалять свои сообщения
Вы не можете голосовать в опросах
Вы не можете прикреплять файлы к сообщениям
Вы не можете скачивать файлы