Ведьмина гора / Race to Witch Mountain (Энди Фикмен / Andy Fickman) [2009, США, фантастика, приключения, семейный, HDRip] AVO (Немахов)

 
Автор Сообщение

painkiller ®

Стаж: 2 года 3 месяца

Сообщений: 582



Награды: Нет

Торрент-статистика

Создавать темы 14-Авг-2014 13:01

[Цитировать]

Ведьмина гора / Race to Witch Mountain- Страна: США
Жанр: фантастика, приключения, семейный
Год выпуска: 2009
Продолжительность: 01:38:17
Перевод: Авторский (одноголосый закадровый) Немахов
Cубтитры: нет-Режиссер: Энди Фикмен / Andy Fickman
В ролях: Дуэйн Джонсон (Jack Bruno), Анна-Cофия Робб (Sara), Александр Людвиг (Seth), Карла Гуджино (Dr. Alex Friedman), Киаран Хиндс (Burke), Том Эверетт Скотт (Matheson), Крис Маркетт (Pope), Билли Браун (Carson), Гэрри Маршалл (Dr. Donald Harlan), Ким Ричардс (Tina).
Описание: Джек Бруно работает таксистом. Он изо дня в день колесит дорогами Лас-Вегаса и казалось ни что уже не изменит его однообразную жизнь. Но, в один прекрасный момент, в его машину запрыгивают двое детей Сэт и Сара. Они просят водителя ехать как можно быстрее, ведь им нужно уйти от погони. Через некоторое время Джек начинает понимать, что это не обычные дети, что они обладают паранормальными способностями. Они просят его отвести их в одно место, где они будут в безопасности. Джек решает помочь им. Так и начинается их долгое смертельно опасное путешествие, в котором им не раз придется выручить друг друга...-Качество видео: HDRip
Формат видео: AVI | Sample
Видео: 720x304 (2.35:1), 23.976 fps, XviD build 73 ~1720 kbps avg, 0.33 bit/pixel
Аудио: 48 kHz, AC3 Dolby Digital, 3/2 (L,C,R,l,r) + LFE ch, ~384.00 kbps avg
Медиаинфо">

Скриншоты Медиаинфо


Общее
Формат : AVI
Формат/Информация : Audio Video Interleave
Размер файла : 1,45 Гбайт
Продолжительность : 1 ч. 38 м.
Общий поток : 2113 Кбит/сек
Программа кодирования : VirtualDubModRus 1.5.10.2 (build 2542/release)
Библиотека кодирования : VirtualDubMod build 2542/release
Видео
Идентификатор : 0
Формат : MPEG-4 Visual
Профиль формата : Advanced Simple@L5
Параметр BVOP формата : 1
Параметр QPel формата : Нет
Параметр GMC формата : Без точки перехода
Параметр матрицы формата : Выборочная
Идентификатор кодека : XVID
Идентификатор кодека/Подсказка : XviD
Продолжительность : 1 ч. 38 м.
Битрейт : 1720 Кбит/сек
Ширина : 720 пикселей
Высота : 304 пикселя
Соотношение сторон : 2,35:1
Частота кадров : 23,976 кадра/сек
Цветовое пространство : YUV
Субдискретизация насыщенности : 4:2:0
Битовая глубина : 8 бит
Тип развёртки : Прогрессивная
Метод сжатия : С потерями
Бит/(Пиксели*Кадры) : 0.328
Размер потока : 1,18 Гбайт (81%)
Библиотека кодирования : XviD 73
Аудио
Идентификатор : 1
Формат : AC-3
Формат/Информация : Audio Coding 3
Расширение режима : CM (complete main)
Параметр Endianness формата : Big
Идентификатор кодека : 2000
Продолжительность : 1 ч. 38 м.
Вид битрейта : Постоянный
Битрейт : 384 Кбит/сек
Каналы : 6 каналов
Расположение каналов : Front: L C R, Side: L R, LFE
Частота : 48,0 КГц
Битовая глубина : 16 бит
Метод сжатия : С потерями
Размер потока : 270 Мбайт (18%)
Выравнивание : Разделение по промежуткам
Продолжительность промежутка : 42 мс. (1,00 видеокадр)
Время предзагрузки промежутка : 500 мс.
[Профиль] [ЛС]

Создавать темы 06-Авг-2015 23:14 (спустя 11 месяцев 23 дня)

Топик был перенесен из форума Фильмы до 2014 года в форум Фильмы до 2012 года
sergej644
 

Создавать темы 12-Июн-2016 08:48 (спустя 1 год 9 месяцев)

Топик был перенесен из форума Фильмы 2011 года в форум Фильмы 2009 года
Russian Mafia
 
Показать сообщения:    

Текущее время: Сегодня 09:57

Часовой пояс: GMT



Вы не можете начинать темы
Вы не можете отвечать на сообщения
Вы не можете редактировать свои сообщения
Вы не можете удалять свои сообщения
Вы не можете голосовать в опросах
Вы не можете прикреплять файлы к сообщениям
Вы не можете скачивать файлы