Ведьма / The VVitch: A New-England Folktale (2015) BDRemux 1080p от ExKinoRay | Лицензия

 
Автор Сообщение

Russian Mafia ®

Пол:

Стаж: 1 год 8 месяцев

Сообщений: 4253



Награды: 10 (Подробнее)

За внесенный вклад в развитие сайта (Количество: 1) Mega Seeder 4 (Количество: 1) Top Releaser 2 (Количество: 1)
Торрент-статистика

Создавать темы 23-Июл-2016 05:52

[Цитировать]

Информация о фильме
Название: Ведьма
Оригинальное название: The VVitch: A New-England Folktale
Год выхода: 2015
Жанр: Ужасы, детектив
Режиссер: Роберт Эггерс
В ролях: Аня Тейлор-Джой, Ралф Айнесон, Кейт Дики, Харви Скримшо, Элли Грэйнджер, Лукас Доусон, Батшеба Гарнетт, Сара Стефенс, Джулиан Ричингс, Вахаб Каудхри
О фильме:
Семья колонистов покидает плантацию, чтобы жить на уединенной ферме рядом с лесом в Новой Англии. Но вскоре младший ребёнок, ещё младенец, исчезает.

Страна: США, Великобритания, Канада, Бразилия
Студия: Code Red Productions, Maiden Voyage Pictures, Mott Street Pictures, Parts and Labor
Продолжительность: 01:32:33
Перевод: Дублированный | Лицензия Blu-Ray CEE
Файл
Кодек: MPEG-4
Качество: BDRemux 1080p
Видео: 1920x1080, 32.1 Мbit/s, 23.976 fps
Звук:
Аудио #01: 48 kHz, DTS, 5.1, 768 Kbps | Дублированный, Лицензия Blu-Ray CEE |
Аудио #02: 48 kHz, DTS-HD MA, 5.1, 3426 kbps | Оригинал |
Субтитры: Русские, английские (srt,SDH)

MI

General
Unique ID : 198248103330931573240763146201420450911 (0x952532240823E7A8965DFDC0D43ACC5F)
Complete name : G:VideoНовая папка (2)The.VVitch.A.New-England.Folktale.2015.D.BDREMUX.1080p.ExKinoRay.mkv
Format : Matroska
Format version : Version 4 / Version 2
File size : 23.5 GiB
Duration : 1h 32mn
Overall bit rate mode : Variable
Overall bit rate : 36.3 Mbps
Movie name : The.VVitch: A.New-England.Folktale.2015.D.BDREMUX.1080p.ExKinoRay
Encoded date : UTC 2016-07-23 04:54:55
Writing application : mkvmerge v8.3.0 ('Over the Horizon') 64bit
Writing library : libebml v1.3.1 + libmatroska v1.4.2
Video
ID : 1
Format : AVC
Format/Info : Advanced Video Codec
Format profile : High@L4.1
Format settings, CABAC : Yes
Format settings, ReFrames : 4 frames
Format settings, GOP : M=3, N=12
Codec ID : V_MPEG4/ISO/AVC
Duration : 1h 32mn
Bit rate mode : Variable
Bit rate : 32.1 Mbps
Maximum bit rate : 35.0 Mbps
Width : 1 920 pixels
Height : 1 080 pixels
Display aspect ratio : 16:9
Frame rate mode : Constant
Frame rate : 23.976 (24000/1001) fps
Color space : YUV
Chroma subsampling : 4:2:0
Bit depth : 8 bits
Scan type : Progressive
Bits/(Pixel*Frame) : 0.646
Stream size : 20.8 GiB (88%)
Language : English
Default : Yes
Forced : No
Audio #1
ID : 2
Format : DTS
Format/Info : Digital Theater Systems
Mode : 16
Format settings, Endianness : Big
Codec ID : A_DTS
Duration : 1h 32mn
Bit rate mode : Constant
Bit rate : 768 Kbps
Channel(s) : 6 channels
Channel positions : Front: L C R, Side: L R, LFE
Sampling rate : 48.0 KHz
Frame rate : 93.750 fps (512 spf)
Bit depth : 24 bits
Compression mode : Lossy
Stream size : 508 MiB (2%)
Title : DUB [Blu-Ray CEE]
Language : Russian
Default : Yes
Forced : No
Audio #2
ID : 3
Format : DTS
Format/Info : Digital Theater Systems
Format profile : MA / Core
Mode : 16
Format settings, Endianness : Big
Codec ID : A_DTS
Duration : 1h 32mn
Bit rate mode : Variable / Constant
Bit rate : 3 426 Kbps / 1 509 Kbps
Channel(s) : 6 channels
Channel positions : Front: L C R, Side: L R, LFE
Sampling rate : 48.0 KHz
Frame rate : 93.750 fps (512 spf)
Bit depth : 24 bits
Compression mode : Lossless / Lossy
Stream size : 2.21 GiB (9%)
Title : Original
Language : English
Default : No
Forced : No
Text #1
ID : 4
Format : UTF-8
Codec ID : S_TEXT/UTF8
Codec ID/Info : UTF-8 Plain Text
Duration : 1h 25mn
Bit rate : 59 bps
Count of elements : 786
Stream size : 37.0 KiB (0%)
Title : Full
Language : Russian
Default : No
Forced : No
Text #2
ID : 5
Format : UTF-8
Codec ID : S_TEXT/UTF8
Codec ID/Info : UTF-8 Plain Text
Duration : 1h 24mn
Bit rate : 40 bps
Count of elements : 814
Stream size : 25.0 KiB (0%)
Title : Full
Language : English
Default : No
Forced : No
Text #3
ID : 6
Format : UTF-8
Codec ID : S_TEXT/UTF8
Codec ID/Info : UTF-8 Plain Text
Duration : 1h 27mn
Bit rate : 43 bps
Count of elements : 953
Stream size : 27.7 KiB (0%)
Title : SDH
Language : English
Default : No
Forced : No
Menu
00:00:00.000 : en:Chapter 01
00:04:44.159 : en:Chapter 02
00:13:12.333 : en:Chapter 03
00:18:51.672 : en:Chapter 04
00:26:40.432 : en:Chapter 05
00:29:47.869 : en:Chapter 06
00:37:11.145 : en:Chapter 07
00:42:09.068 : en:Chapter 08
00:48:23.817 : en:Chapter 09
00:53:23.867 : en:Chapter 10
01:00:36.049 : en:Chapter 11
01:04:13.558 : en:Chapter 12
01:10:27.431 : en:Chapter 13
01:13:55.431 : en:Chapter 14
01:20:42.045 : en:Chapter 15
01:25:14.901 : en:Chapter 16

Скриншоты

Релиз от: Автор релиза:
[Профиль] [ЛС]
Показать сообщения:    

Текущее время: Сегодня 10:50

Часовой пояс: GMT



Вы не можете начинать темы
Вы не можете отвечать на сообщения
Вы не можете редактировать свои сообщения
Вы не можете удалять свои сообщения
Вы не можете голосовать в опросах
Вы не можете прикреплять файлы к сообщениям
Вы не можете скачивать файлы