Ведьма (2015) HDTVRip

 
Автор Сообщение

достали все ®

Пол:

Стаж: 1 год 8 месяцев

Сообщений: 6527



Награды: 12 (Подробнее)

Top Releaser 3 (Количество: 1) Mega Releaser 2 (Количество: 1) Mega Seeder 2 (Количество: 1)
Торрент-статистика

Создавать темы 15-Июн-2016 14:57

[Цитировать]

Информация о фильме
Название: Ведьма
Год выхода: 2015
Жанр: Драма, триллер
Режиссер: Дмитрий Федоров
В ролях: Мария Баева, Анатолий Горячев, Дарья Екамасова, Пётр Коврижных, Ольга Сырцова, Всеволод Николаев, Полина Шашуро, Максим Максимов, Софи Шуткина, Маргарита Спасибо
О фильме:
Действие картины происходит в летнем молодёжном лагере у моря. Тоня — тихая, замкнутая и доверчивая девочка становится соседкой Людки — яркой, сильной и расчетливой девицы. Они влюбляются в одного мальчика. Кажется, что у робкой Тони нет никаких шансов против сексуальной Людки, но вдруг выясняется, что Тоня обладает сверхъестественными способностями, которые не может контролировать. Нелюдимый затравленный подросток, не понимающий природу своей страшной силы. Окружающие считают её самой настоящей ведьмой, не подозревая, что на самом деле ведьма не она…
Для кого-то эти каникулы станут последними, а те, кто смогут выжить — никогда уже не станут прежними…

Страна: Россия
Студия: Кинокомпания «Ракурс»
Продолжительность: 01:27:03
Перевод: Не требуется
Файл
Качество: HDTVRip
Кодек: XviD
Видео: 720x400 (16:9), 25 fps, XviD ~ 2049 kbps avg, 0.285 bit/pixel
Аудио: AC3, 48 kHz, 2 ch, ~192.00 kbps avg | русский
Субтитры: Отсутствуют
Семпл

Инфо-файл

Общее
Полное имя : D:TorrentsЗавершенныеBedma.2015.O.HDTVRip.avi
Формат : AVI
Формат/Информация : Audio Video Interleave
Размер файла : 1,37 Гбайт
Продолжительность : 1 ч. 27 м.
Общий поток : 2250 Кбит/сек
Программа кодирования : VirtualDubMod 1.5.10.3 | www.virtualdub-fr.org || (build 2550/release)
Библиотека кодирования : VirtualDubMod build 2550/release
Видео
Идентификатор : 0
Формат : MPEG-4 Visual
Профиль формата : Advanced Simple@L5
Параметр BVOP формата : 2
Параметр QPel формата : Нет
Параметр GMC формата : Без точки перехода
Параметр матрицы формата : Default (MPEG)
Идентификатор кодека : XVID
Идентификатор кодека/Подсказка : XviD
Продолжительность : 1 ч. 27 м.
Битрейт : 2049 Кбит/сек
Ширина : 720 пикселей
Высота : 400 пикселей
Соотношение сторон : 16:9
Частота кадров : 25,000 кадров/сек
Цветовое пространство : YUV
Субдискретизация насыщенности : 4:2:0
Битовая глубина : 8 бит
Тип развёртки : Прогрессивная
Метод сжатия : С потерями
Бит/(Пиксели*Кадры) : 0.285
Размер потока : 1,25 Гбайт (91%)
Библиотека кодирования : XviD 1.2.1 (UTC 2008-12-04)
Аудио
Идентификатор : 1
Формат : AC-3
Формат/Информация : Audio Coding 3
Расширение режима : CM (complete main)
Параметр Endianness формата : Big
Идентификатор кодека : 2000
Продолжительность : 1 ч. 27 м.
Вид битрейта : Постоянный
Битрейт : 192 Кбит/сек
Каналы : 2 канала
Расположение каналов : Front: L R
Частота : 48,0 КГц
Частота кадров : 31,250 кадров/сек (1536 spf)
Метод сжатия : С потерями
Размер потока : 120 Мбайт (9%)
Выравнивание : Разделение по промежуткам
Продолжительность промежутка : 40 мс. (1,00 видеокадр)
Время предзагрузки промежутка : 500 мс.

Скриншоты

[Профиль] [ЛС]
Показать сообщения:    

Текущее время: Сегодня 02:09

Часовой пояс: GMT



Вы не можете начинать темы
Вы не можете отвечать на сообщения
Вы не можете редактировать свои сообщения
Вы не можете удалять свои сообщения
Вы не можете голосовать в опросах
Вы не можете прикреплять файлы к сообщениям
Вы не можете скачивать файлы