Ведьма из Блэр: Новая глава / Blair Witch (2016) DVD9 | Лицензия

 
Author Message

BOSS ®

Gender:

Longevity: 5 years 9 months

Posts: 14662

Location: ODESSA



: 22 ()

Top Keeper 1 (1) Top Keeper 4 (1) Top Releaser 4 (1)
Торрент-статистика

Post 07-Jul-2018 17:50

[Quote]

Информация о фильме
Название: Ведьма из Блэр: Новая глава
Оригинальное название: Blair Witch
Год выхода: 2016
Жанр: ужасы, триллер
Режиссер: Адам Вингард
В ролях: Джеймс Аллен МакКьюн, Калли Эрнандес, Корбин Рейд, Брэндон Скотт, Уэс Робинсон, Вэлори Керри, Хезер Донахью
О фильме:
После обнаружения загадочной видеозаписи у Джеймса появляется надежда найти свою пропавшую сестру. Вместе с группой друзей он решается отправиться в лес Блэк Хиллз, известный по легенде о ведьме из Блэр. Но никакая самая страшная легенда не сравнится с тем кошмаром, который ждет их в реальности.

Страна: Канада, США
Студия: Lionsgate, Room 101, Snoot Entertainment, Vertigo Entertainment
Продолжительность: 01:25:32
Перевод: профессиональный (дублированный) лицензия
Файл
Кодек: MPEG2
Качество: DVD9 «НД Плэй»
Видео: PAL 16:9 (720x576@1024x576) VBR 7990 Kbps, 25.000 fps
Аудио: Dolby AC3, 6 ch, 48.0 KHz, 448 Kbps (русский)
Субтитры: отсутствуют

MediaInfo

Общее
Полное имя : Blair Witch (2016) DVD9 R5VIDEO_TSVTS_12_1.VOB
Формат : MPEG-PS
Размер файла : 1000 Мбайт
Продолжительность : 16 м. 14 с.
Режим общего битрейта : Переменный
Общий поток : 8609 Кбит/сек
Видео
Идентификатор : 224 (0xE0)
Формат : MPEG Video
Версия формата : Version 2
Профиль формата : Main@Main
Настройки формата : BVOP
Параметр BVOP формата : Да
Параметр матрицы формата : По умолчанию
Параметр GOP формата : M=3, N=12
Продолжительность : 16 м. 14 с.
Вид битрейта : Переменный
Битрейт : 7990 Кбит/сек
Максимальный битрейт : 8500 Кбит/сек
Ширина : 720 пикселей
Высота : 576 пикселей
Соотношение сторон : 16:9
Частота кадров : 25,000 кадров/сек
Стандарт вещания : PAL
Цветовое пространство : YUV
Субдискретизация насыщенности : 4:2:0
Битовая глубина : 8 бит
Тип развёртки : Прогрессивная
Метод сжатия : С потерями
Бит/(Пиксели*Кадры) : 0.771
Временной код первого кадра : 00:00:00:00
Оригинал временного кода : Group of pictures header
GOP, открыто/закрыто : Открыто
GOP, открыто/закрыто на первом кадре : Закрыто
Размер потока : 928 Мбайт (93%)
Аудио
Идентификатор : 189 (0xBD)-128 (0x80)
Формат : AC-3
Формат/Информация : Audio Coding 3
Параметр Endianness формата : Big
Режим смешивания : DVD-Video
Продолжительность : 16 м. 14 с.
Вид битрейта : Постоянный
Битрейт : 448 Кбит/сек
Каналы : 6 каналов
Расположение каналов : Front: L C R, Side: L R, LFE
Частота : 48,0 КГц
Частота кадров : 31,250 кадров/сек (1536 SPF)
Битовая глубина : 16 бит
Метод сжатия : С потерями
Размер потока : 52,0 Мбайт (5%)
Меню

Скриншоты


[Profile] [PM]
Display posts from previous:    

The time now is: Today 11:38

All times are GMT



You cannot post new topics in this forum
You cannot reply to topics in this forum
You cannot edit your posts in this forum
You cannot delete your posts in this forum
You cannot vote in polls in this forum
You cannot attach files in this forum
You cannot download files in this forum