Ведьмак/ The Witcher (Сезон 1 , Серия 1-8 из 8) (Алик Сахаров, Шарлотта Брандстром, Алекс Гарсиа Лопес) [2019, Фэнтези, боевик, драма, приключения,WEB-DLRip 1080p] [LostFilm+Пифагор+NewStudio+TVShows+ENG]+[Subs Rus , ENG]

 
Author Message

Враг Нароода ®

Gender:

Longevity: 5 years

Posts: 361



: 2 ()

За внесенный вклад в развитие сайта (1) Mega Seeder 1 (1)
Торрент-статистика

Post 07-Jan-2020 17:38

[Quote]

-- --Ведьмак/ The Witcher Сезон 1 , Серия 1-8 из 8 - Полный Комплект-- --Год выпуска: 2019
Выпущено: Польша, США, NetFlix, Pioneer Stilking Films, Platige Image, Sean Daniel Company
Жанр: Фэнтези, боевик, драма, приключения
Продолжительность: 01:00:00
Сезон: 1
Серия:1-8
Количество серий в сезоне:8--Озвучка #1: Профессиональный многоголосый - LostFilm - Русский
Озвучка #2: профессиональный (дублированный) - Пифагор - Русский
Озвучка #3: Профессиональный многоголосый - NewStudio - Русский
Озвучка #4: Профессиональный многоголосый - TVShows - Русский
Озвучка #5: Профессиональный многоголосый - Jaskier - Русский
Озвучка #6: Профессиональный многоголосый - HDRezka Studio - Русский
Озвучка #7: Профессиональный многоголосый - Кубик в Кубе - Русский
Озвучка #8: Профессиональный многоголосый -Английский - Оригинал
Субтитры: Русские (Forced, Full), английские SDH
--Релиз Релиз Без Рекламы - Ненормативная лексика NewStudio --MDB 8 . 9 --Режиссеры:
Алик Сахаров, Шарлотта Брандстром, Алекс Гарсиа Лопес--В ролях: : Генри Кавилл, Фрейя Аллан, Джои Бэти, МайАнна Бёринг, Том Кэнтон, Аня Чалотра, Имон Фэррен, Бьерн Хлинур Харальдссон, Адам Леви, Джоди Мэй, Ларс Миккельсен, Мацей Мусял, Мими Дивени, Ройс Пирресон, Уилсон Раджу-Пухальте, Анна Шаффер, Амит Шах, Наташа Кулзач, Имоджен Дэйнес-- Все события в этом телесериале происходят в придуманном мире, в котором обитают всевозможные чудовищные существа, а также очень опасные монстры. Наш главный герой -- ведьмак, охотившийся за кровожадными оборотнями, представляющих угрозу для жизни людей. В раннем детстве он пережил мутацию, в результате чего получил лучшие боевые навыки: повышенную силу, быструю реакцию. Основной его задачей было за оплату уничтожать кровожадных обитателей. Но другой раз он шел наперекор своим нанимателям. Геральт оставлял в живых драконов, которых почти не осталось на земле; монстров обладающих высоким интеллектом и вообще старался не вмешиваться в политические интриги чародеев и королей. Но однажды он все таки был вовлечен в противостояния между королевствами, чтобы защитить совсем юную княжну, на которой были сосредоточены интересы больших людей. По предсказанию только ее будущий потомок мог решить судьбу всего человечества. Цири тоже хорошо владела мечом и обладала магией, вот им двоим и пришлось преодолевать все тяжелые испытания, встречающиеся на их пути.-- --Качество :WEB-DLRip 1080p
Формат: MKV
Видео кодек: H264
Видео: 14.4Mбит/сек,1920х960(2.000),в 24.000кадр/сек,AVC (High@L4.1)(CABAC/4 Ref Frames)--Аудио Кодек:AC3
Аудио #1:MVO LostFilm @DD5.1 E-AC3, 768 Kbps, 48.0 KHz, 6 ch- Lostfilm -Русский
Аудио #2:DUB Пифагор @DD5.1 E-AC3, 768 Kbps, 48.0 KHz, 6 chh-Пифагор -Русский
Аудио #3:MVO NewStudio @DD5.1 AC3, 640 Kbps, 48.0 KHz, 6 ch- NewStudio -Русский
Аудио #4:MVO MVO TVShows @DD5.1 AC3, 384 Kbps, 48.0 KHz, 6 ch- TVShows -Русский
Аудио #5:MVO Кубик в Кубе @DD5.1 AC3, 640 Kbps, 48.0 KHz, 6 ch- Кубик в Кубе -Русский
Аудио #6:MVO MVO Jaskier @DD5.1 AC3, 384 Kbps, 48.0 KHz, 6 ch- Jaskier -Русский
Аудио #7:MVO HDRezka Studio @DD5.1 AC3, 384 Kbps, 48.0 KHz, 6 ch- HDRezka Studio -Русский
Аудио #8: Original@DD5.1 E-AC3 ,768 Kbps, 48.0 KHz, 6 ch- English - Оригинал-- --

Доп. информация:

Звуковая дорожка сделана путем наложения чистого голоса озвучивателей на центральный канал оригинальной дорожки. Качество идентично звуковой дорожке.
--

Список эпизодов сезона


1 сезон 1 серия - Начало конца - The End's Beginning
1 сезон 2 серия - Четыре марки - Four Marks
1 сезон 3 серия - Предательская луна - Betrayer Moon
1 сезон 4 серия - Приемы, бастарды и погребения - Of Banquets, Bastards and Burials
1 сезон 5 серия - Желания в бутылке - Bottled Appetites
1 сезон 6 серия - Редкий вид - Rare Species
1 сезон 7 серия - До падения - Before a Fall
1 сезон 8 серия - Нечто большее - Much More
--

MediaInfo сезона

Общее
Уникальный идентификатор : 91153768068672358174375460476942083745 (0x449393BFE32904032471CA7FDD0CE6A1)
Полное имя : F:\RussianPatriot\Ведьмак - The Witcher\The_Witcher_2019_S01_Н264_DD5.1_N.B_HD_1080_3xRus_Eng\The_Witcher_2019_S01E01_Н264_DD5.1_N.B_HD_1080_3xRus_Eng.mkv
Формат : Matroska
Версия формата : Version 4
Размер файла : 8,14 Гбайт
Продолжительность : 1 ч. 1 м.
Общий поток : 19,1 Мбит/сек
Название фильма : The Witcher 2019 S01E01 @ Nikolai.Baranov & PIRATIYA
Дата кодирования : UTC 2020-01-06 13:12:44
Программа кодирования : mkvmerge v42.0.0 ('Overtime') 64-bit
Библиотека кодирования : libebml v1.3.10 + libmatroska v1.5.2 / Lavf58.20.100
Видео
Идентификатор : 1
Формат : AVC
Формат/Информация : Advanced Video Codec
Профиль формата : High@L4.1
Настройки формата : CABAC / 4 Ref Frames
Параметр CABAC формата : Да
Параметр RefFrames формата : 4 кадра
Идентификатор кодека : V_MPEG4/ISO/AVC
Продолжительность : 1 ч. 1 м.
Битрейт : 14,4 Мбит/сек
Ширина : 1920 пикселей
Высота : 960 пикселей
Соотношение сторон : 2,000
Режим частоты кадров : Постоянный
Частота кадров : 24,000 кадра/сек
Цветовое пространство : YUV
Субдискретизация насыщенности : 4:2:0
Битовая глубина : 8 бит
Тип развёртки : Прогрессивная
Бит/(Пиксели*Кадры) : 0.324
Размер потока : 6,12 Гбайт (75%)
Заголовок : The_Witcher_2019_S01E01_Н264_DD5.1_N.B_HD_1080_3xRus_Eng
Библиотека кодирования : x264 core 157 r2969 d4099dd
Настройки программы : cabac=1 / ref=4 / deblock=1:-3:-3 / analyse=0x3:0x133 / me=umh / subme=10 / psy=1 / psy_rd=1.00:0.15 / mixed_ref=1 / me_range=48 / chroma_me=1 / trellis=2 / 8x8dct=1 / cqm=0 / deadzone=21,11 / fast_pskip=0 / chroma_qp_offset=-3 / threads=24 / lookahead_threads=4 / sliced_threads=0 / nr=0 / decimate=0 / interlaced=0 / bluray_compat=0 / constrained_intra=0 / bframes=8 / b_pyramid=2 / b_adapt=2 / b_bias=0 / direct=3 / weightb=1 / open_gop=0 / weightp=2 / keyint=250 / keyint_min=24 / scenecut=40 / intra_refresh=0 / rc=crf / mbtree=0 / crf=16.0 / qcomp=0.60 / qpmin=0 / qpmax=69 / qpstep=4 / ip_ratio=1.30 / pb_ratio=1.20 / aq=3:0.80
Язык : Russian
Default : Да
Forced : Нет
Аудио #1
Идентификатор : 4
Формат : E-AC-3 JOC
Формат/Информация : Enhanced AC-3 with Joint Object Coding
Коммерческое название : Dolby Digital Plus with Dolby Atmos
Идентификатор кодека : A_EAC3
Продолжительность : 1 ч. 1 м.
Вид битрейта : Постоянный
Битрейт : 768 Кбит/сек
Каналы : 6 каналов
ChannelLayout : L R C LFE Ls Rs
Частота : 48,0 КГц
Частота кадров : 31,250 кадров/сек (1536 SPF)
Метод сжатия : С потерями
Задержка видео : -83 мс.
Размер потока : 335 Мбайт (4%)
Заголовок : DUB Пифагор @DD5.1 E-AC3, 768 Kbps, 48.0 KHz, 6 ch
Язык : Russian
ServiceKind/String : Complete Main
Default : Да
Forced : Нет
ComplexityIndex : 16
NumberOfDynamicObjects : 15
BedChannelCount/String : 1 канал
BedChannelConfiguration : LFE
Аудио #2
Идентификатор : 5
Формат : E-AC-3
Формат/Информация : Enhanced AC-3
Коммерческое название : Dolby Digital Plus
Идентификатор кодека : A_EAC3
Продолжительность : 1 ч. 1 м.
Вид битрейта : Постоянный
Битрейт : 768 Кбит/сек
Каналы : 6 каналов
ChannelLayout : L R C LFE Ls Rs
Частота : 48,0 КГц
Частота кадров : 31,250 кадров/сек (1536 SPF)
Метод сжатия : С потерями
Задержка видео : -83 мс.
Размер потока : 335 Мбайт (4%)
Заголовок : MVO LostFilm @DD5.1 E-AC3, 768 Kbps, 48.0 KHz, 6 ch
Язык : Russian
ServiceKind/String : Complete Main
Default : Нет
Forced : Нет
Аудио #3
Идентификатор : 6
Формат : AC-3
Формат/Информация : Audio Coding 3
Коммерческое название : Dolby Digital
Идентификатор кодека : A_AC3
Продолжительность : 1 ч. 0 м.
Вид битрейта : Постоянный
Битрейт : 640 Кбит/сек
Каналы : 6 каналов
ChannelLayout : L R C LFE Ls Rs
Частота : 48,0 КГц
Частота кадров : 31,250 кадров/сек (1536 SPF)
Метод сжатия : С потерями
Задержка видео : -83 мс.
Размер потока : 276 Мбайт (3%)
Заголовок : MVO NewStudio @DD5.1 AC3, 640 Kbps, 48.0 KHz, 6 ch
Язык : Russian
ServiceKind/String : Complete Main
Default : Нет
Forced : Нет
Аудио #4
Идентификатор : 7
Формат : E-AC-3 JOC
Формат/Информация : Enhanced AC-3 with Joint Object Coding
Коммерческое название : Dolby Digital Plus with Dolby Atmos
Идентификатор кодека : A_EAC3
Продолжительность : 1 ч. 1 м.
Вид битрейта : Постоянный
Битрейт : 768 Кбит/сек
Каналы : 6 каналов
ChannelLayout : L R C LFE Ls Rs
Частота : 48,0 КГц
Частота кадров : 31,250 кадров/сек (1536 SPF)
Метод сжатия : С потерями
Размер потока : 335 Мбайт (4%)
Заголовок : Original@DD5.1 E-AC3 ,768 Kbps, 48.0 KHz, 6 ch
Язык : English
ServiceKind/String : Complete Main
Default : Нет
Forced : Нет
ComplexityIndex : 16
NumberOfDynamicObjects : 15
BedChannelCount/String : 1 канал
BedChannelConfiguration : LFE
Аудио #5
Идентификатор : 10
Формат : AC-3
Формат/Информация : Audio Coding 3
Коммерческое название : Dolby Digital
Идентификатор кодека : A_AC3
Продолжительность : 1 ч. 1 м.
Вид битрейта : Постоянный
Битрейт : 384 Кбит/сек
Каналы : 6 каналов
ChannelLayout : L R C LFE Ls Rs
Частота : 48,0 КГц
Частота кадров : 31,250 кадров/сек (1536 SPF)
Метод сжатия : С потерями
Задержка видео : -83 мс.
Размер потока : 168 Мбайт (2%)
Заголовок : MVO TVShows @DD5.1 AC3, 384 Kbps, 48.0 KHz, 6 ch
Язык : Russian
ServiceKind/String : Complete Main
Default : Нет
Forced : Нет
Аудио #6
Идентификатор : 11
Формат : AC-3
Формат/Информация : Audio Coding 3
Коммерческое название : Dolby Digital
Идентификатор кодека : A_AC3
Продолжительность : 1 ч. 1 м.
Вид битрейта : Постоянный
Битрейт : 640 Кбит/сек
Каналы : 6 каналов
ChannelLayout : L R C LFE Ls Rs
Частота : 48,0 КГц
Частота кадров : 31,250 кадров/сек (1536 SPF)
Метод сжатия : С потерями
Задержка видео : -83 мс.
Размер потока : 280 Мбайт (3%)
Заголовок : MVO Кубик в Кубе @DD5.1 AC3, 640 Kbps, 48.0 KHz, 6 ch
Язык : Russian
ServiceKind/String : Complete Main
Default : Нет
Forced : Нет
Аудио #7
Идентификатор : 12
Формат : AC-3
Формат/Информация : Audio Coding 3
Коммерческое название : Dolby Digital
Идентификатор кодека : A_AC3
Продолжительность : 1 ч. 0 м.
Вид битрейта : Постоянный
Битрейт : 384 Кбит/сек
Каналы : 6 каналов
ChannelLayout : L R C LFE Ls Rs
Частота : 48,0 КГц
Частота кадров : 31,250 кадров/сек (1536 SPF)
Метод сжатия : С потерями
Задержка видео : -83 мс.
Размер потока : 166 Мбайт (2%)
Заголовок : MVO Jaskier @DD5.1 AC3, 384 Kbps, 48.0 KHz, 6 ch
Язык : Russian
ServiceKind/String : Complete Main
Default : Нет
Forced : Нет
Аудио #8
Идентификатор : 13
Формат : AC-3
Формат/Информация : Audio Coding 3
Коммерческое название : Dolby Digital
Идентификатор кодека : A_AC3
Продолжительность : 1 ч. 0 м.
Вид битрейта : Постоянный
Битрейт : 384 Кбит/сек
Каналы : 6 каналов
ChannelLayout : L R C LFE Ls Rs
Частота : 48,0 КГц
Частота кадров : 31,250 кадров/сек (1536 SPF)
Метод сжатия : С потерями
Задержка видео : -83 мс.
Размер потока : 166 Мбайт (2%)
Заголовок : MVO HDRezka Studio @DD5.1 AC3, 384 Kbps, 48.0 KHz, 6 ch
Язык : Russian
ServiceKind/String : Complete Main
Default : Нет
Forced : Нет
Текст #1
Идентификатор : 2
Формат : UTF-8
Идентификатор кодека : S_TEXT/UTF8
Идентификатор кодека/Информация : UTF-8 Plain Text
Продолжительность : 2 м. 54 с.
Битрейт : 3 бит/сек
ElementCount : 2
Размер потока : 86,0 байт (0%)
Заголовок : Начало конца-Russian-Forced
Язык : Russian
Default : Да
Forced : Нет
Текст #2
Идентификатор : 3
Формат : UTF-8
Идентификатор кодека : S_TEXT/UTF8
Идентификатор кодека/Информация : UTF-8 Plain Text
Продолжительность : 58 м. 35 с.
Битрейт : 65 бит/сек
ElementCount : 623
Размер потока : 28,1 Кбайт (0%)
Заголовок : Начало конца-Russian
Язык : Russian
Default : Нет
Forced : Нет
Текст #3
Идентификатор : 8
Формат : UTF-8
Идентификатор кодека : S_TEXT/UTF8
Идентификатор кодека/Информация : UTF-8 Plain Text
Продолжительность : 58 м. 33 с.
Битрейт : 46 бит/сек
ElementCount : 748
Размер потока : 20,0 Кбайт (0%)
Заголовок : The End's Beginning-Original - SDH
Язык : English
Default : Нет
Forced : Нет
Текст #4
Идентификатор : 9
Формат : UTF-8
Идентификатор кодека : S_TEXT/UTF8
Идентификатор кодека/Информация : UTF-8 Plain Text
Продолжительность : 58 м. 33 с.
Битрейт : 46 бит/сек
ElementCount : 748
Размер потока : 20,0 Кбайт (0%)
Заголовок : The End's Beginning-Original
Язык : English
Default : Нет
Forced : Нет
Меню
00:00:00.083 : ru:Chapter 01 / ru:Chapter 01 / ru:Chapter 01 / ru:Chapter 01 / ru:Chapter 01 / ru:Chapter 01 / ru:Chapter 01 / ru:Chapter 01 / ru:Chapter 01 / ru:Chapter 01 / ru:Chapter 01 / ru:Chapter 01 / ru:Chapter 01
--

Скриншоты

-- --

Как закачать отдельный файл

1. Открыть торрент
2. Снять галки с тех файлов торрента, которые мы не хотим закачивать. Оставляем только на нужных нам файлах (файле).
3. Нажать О.К.
В клиенте utorrent
Инструкция
1) Открыть торрент

2) Снять галки с тех файлов торрента, которые мы не хотим закачивать:
* либо вручную, снимая с каждого файла галку( скрин №1)
* либо, нажав кнопку "Снять метки (Select None)", сняв сразу со всех файлов(скрин №2)
№1

№2

Оставляем только на нужных нам файлах (файле).

3)Нажать О.К
-- -- --Внимание!!! 19.01. 2020. РАЗДАЧА ОБНОВЛЕНА. ДОБАВЛЕНА Звуковая Дорожка Кубик в Кубе -Е04-Е08 -ФИНАЛ СЕЗОНА. ОБНОВИТЕ ТОРЕНТ ФАЙЛ. ПРИЯТНОГО ПРОСМОТРА . Поблагодарить:
ЯД: 410017546713876
--Релиз от: Nikolai.Baranov & PIRATIYA -- -- -- --Время раздачи : 24/7---
[Profile] [PM]
Display posts from previous:    

The time now is: Today 08:28

All times are GMT



You cannot post new topics in this forum
You cannot reply to topics in this forum
You cannot edit your posts in this forum
You cannot delete your posts in this forum
You cannot vote in polls in this forum
You cannot attach files in this forum
You cannot download files in this forum