Вегас / Vegas [S01] (2012) WEB-DLRip | Первый канал

 
Автор Сообщение

Белочка ®

Пол:

Стаж: 5 лет 1 месяц

Сообщений: 2089



Награды: 1 (Подробнее)

Girls (Количество: 1)
Торрент-статистика

Создавать темы 29-Дек-2014 16:24

[Цитировать]

Информация о фильме
Название: Вегас
Оригинальное название: Vegas
Год выхода: 2012
Жанр: боевик, драма, криминал, детектив, вестерн
Режиссер: Мэтт Эрл Бисли, Дуан Кларк, Роксанн Доусон
В ролях: Деннис Куэйд, Майкл Чиклис, Кэрри-Энн Мосс, Тейлор Хэндли, Джейсон О’Мара, Сара Джонс, Джеймс Руссо, Сонни Маринелли, Айми Гарсиа, Майкл Рейли Бурк
О фильме:
Фильм снят по реальным событиям, о ковбое по имени Ральф Лэмб, в 1960-м году ставшем главным шерифом Лас-Вегаса и прослужившем на этом посту 18 лет. При Лэмбе был сформирован полицейский департамент города. Он противостоял мафии, мото-банде «Ангелы ада» и прославился тем, что ни разу ни в кого не выстрелил.

Содержание

01. Пилот / Pilot
02. Игра на деньги / Money Plays
03. Все, что блестит / All That Glitters
04. (Не) законный / (Il)Legitimate
05. Солидные Граждане / Solid Citizens
06. Подлинник / The Real Thing
07. Негодные зерна / Bad Seeds
08. Изобличение / Exposure
09. Маскарад / Masquerade
10. Эстинто / Estinto
11. Племя Пайютов / Paiutes
12. Начиная с сегодняшнего дня / From This Day Forward
13. Поездка за город / Road Trip
14. Третий человек / The Third Man
15. Два сапога пара / Two of a Kind
16. Мелкая рыбка / Little Fish
17. Голливудская концовка / Hollywood Ending
18. Мерзавцы / Scoundrels
19. От прошлого не уйти / Past Lives
20. Неоконченное дело / Unfinished Business
21. Сыны Невады / Sons of Nevada

Страна: США
Студия: CBS Television Studios, Happy Valley Films, Tree Line Films, Arthur Sarkissian Productions
Продолжительность: ~00:45:00 серия
Перевод: Профессиональный (многоголосый закадровый) [Первый канал]
Файл
Кодек: DivX / AC3
Качество: WEB-DLRip
Видео: MPEG4, DivX 5, 720x400 (16:9), 23.976 fps, 1 584 Kbps (0.229 bit/pixel)
Звук:
Аудио #1: AC-3, 48.0 KHz, 2 ch, 192 Kbps, CBR
Аудио #2: AC-3, 48.0 KHz, 2 ch, 192 Kbps, CBR

Скриншоты (повтор)

MediaInfo

General
Complete name : 1x01 - Pilot (Пилот).avi
Format : AVI
Format/Info : Audio Video Interleave
File size : 644 MiB
Duration : 45mn 25s
Overall bit rate : 1 983 Kbps
Writing application : VirtualDubMod 1.5.10.2 (build 2540/release)
Writing library : VirtualDubMod build 2540/release
Copyright : miha2154
Video
ID : 0
Format : MPEG-4 Visual
Format profile : Advanced Simple@L5
Format settings, BVOP : 1
Format settings, QPel : No
Format settings, GMC : No warppoints
Format settings, Matrix : Custom
Codec ID : DX50
Codec ID/Hint : DivX 5
Duration : 45mn 25s
Bit rate : 1 584 Kbps
Width : 720 pixels
Height : 400 pixels
Display aspect ratio : 16:9
Frame rate : 23.976 fps
Color space : YUV
Chroma subsampling : 4:2:0
Bit depth : 8 bits
Scan type : Progressive
Compression mode : Lossy
Bits/(Pixel*Frame) : 0.229
Stream size : 515 MiB (80%)
Writing library : XviD 65
Audio #1
ID : 1
Format : AC-3
Format/Info : Audio Coding 3
Mode extension : CM (complete main)
Format settings, Endianness : Big
Codec ID : 2000
Duration : 45mn 25s
Bit rate mode : Constant
Bit rate : 192 Kbps
Channel(s) : 2 channels
Channel positions : Front: L R
Sampling rate : 48.0 KHz
Bit depth : 16 bits
Compression mode : Lossy
Stream size : 62.4 MiB (10%)
Alignment : Split accross interleaves
Interleave, duration : 42 ms (1.00 video frame)
Interleave, preload duration : 500 ms
Audio #2
ID : 2
Format : AC-3
Format/Info : Audio Coding 3
Mode extension : CM (complete main)
Format settings, Endianness : Big
Codec ID : 2000
Duration : 45mn 25s
Bit rate mode : Constant
Bit rate : 192 Kbps
Channel(s) : 2 channels
Channel positions : Front: L R
Sampling rate : 48.0 KHz
Bit depth : 16 bits
Compression mode : Lossy
Stream size : 62.4 MiB (10%)
Alignment : Split accross interleaves
Interleave, duration : 42 ms (1.00 video frame)
Interleave, preload duration : 500 ms

Внимание! Раздача ведётся путём добавления новых серий

Внимание! Раздача ведётся путём добавления новых серий; при каждом добавлении создётся новый торрент. Чтобы начать докачку новой серии, пользователям необходимо сделать следующее:
Остановить скачивание.
Удалить старый торрент у себя из клиента (старые серии удалять не надо).
Скачать новый торрент и запустить его у себя в клиенте вместо старого, при этом указать клиенту путь в старую папку куда и должно происходить скачивание новых серий.
Ваш клиент при этом должен произвести хеширование (проверку) старой папки (если не производит сам - помогите ему сделать это), и будет докачивать только те серии которых у вас ещё нет. Старые серии при этом не удаляются, а продолжают раздаваться!
Eсли вы уже удалили старые серии, то предотвратить повторную закачку старых серий можно, отжав галочку в соответсвующих местах при запуске нового торрента. По возможности, желательно не удалять старые серии как можно дольше чтобы релизёр не столько продолжал раздавать старые серии, а смог сконцентрироваться на новых.
[Профиль] [ЛС]
Показать сообщения:    

Текущее время: Сегодня 15:43

Часовой пояс: GMT



Вы не можете начинать темы
Вы не можете отвечать на сообщения
Вы не можете редактировать свои сообщения
Вы не можете удалять свои сообщения
Вы не можете голосовать в опросах
Вы не можете прикреплять файлы к сообщениям
Вы не можете скачивать файлы