Вегас / Vegas [01x01 из 21] (2012) WEB-DLRip

 
Автор Сообщение

Белочка ®

Пол:

Стаж: 5 лет 1 месяц

Сообщений: 2089



Награды: 1 (Подробнее)

Girls (Количество: 1)
Торрент-статистика

Создавать темы 10-Дек-2014 19:20

[Цитировать]

Информация о фильме
Название: Вегас
Оригинальное название: Vegas
Год выхода: 2012
Жанр: боевик, драма, криминал, детектив, вестерн
Режиссер: Мэтт Эрл Бисли, Дуан Кларк, Роксанн Доусон
В ролях: Деннис Куэйд, Майкл Чиклис, Кэрри-Энн Мосс, Тейлор Хэндли, Джейсон О’Мара, Сара Джонс, Джеймс Руссо, Сонни Маринелли, Айми Гарсиа, Майкл Рейли Бурк
О фильме:
Фильм снят по реальным событиям, о ковбое по имени Ральф Лэмб, в 1960-м году ставшем главным шерифом Лас-Вегаса и прослужившем на этом посту 18 лет. При Лэмбе был сформирован полицейский департамент города. Он противостоял мафии, мото-банде «Ангелы ада» и прославился тем, что ни разу ни в кого не выстрелил.
Страна: США
Студия: CBS Television Studios, Happy Valley Films, Tree Line Films, Arthur Sarkissian Productions
Продолжительность: ~00:45:00 серия
Перевод: Профессиональный (многоголосый закадровый) 1 канал
Файл
Кодек: XviD
Качество: WEB-DLRip
Видео: XviD, 720x400 (1.80:1), 23.976 fps, XviD build 65 ~1647 kbps avg,
Звук: MP3, 48.0 KHz, 2 ch, 128 Kbps,

Скриншоты

MediaInfo

Общее
Полное имя : E:КиноФаргоVegas.s01e01.avi
Формат : AVI
Формат/Информация : Audio Video Interleave
Размер файла : 581 Мбайт
Продолжительность : 45 м.
Общий поток : 1788 Кбит/сек
Программа кодирования : Lavf54.63.104
Видео
Идентификатор : 0
Формат : xvid
Идентификатор кодека : xvid
Продолжительность : 45 м.
Битрейт : 1647 Кбит/сек
Ширина : 720 пикселей
Высота : 400 пикселей
Соотношение сторон : 16:9
Частота кадров : 23,976 кадра/сек
Бит/(Пиксели*Кадры) : 0.239
Размер потока : 535 Мбайт (92%)
Аудио
Идентификатор : 1
Формат : MPEG Audio
Версия формата : Version 1
Профиль формата : Layer 3
Режим : Joint stereo
Расширение режима : MS Stereo
Идентификатор кодека : 55
Идентификатор кодека/Подсказка : MP3
Продолжительность : 45 м.
Вид битрейта : Постоянный
Битрейт : 128 Кбит/сек
Каналы : 2 канала
Частота : 48,0 КГц
Метод сжатия : С потерями
Размер потока : 41,6 Мбайт (7%)
Выравнивание : Соединение по промежуткам
Продолжительность промежутка : 24 мс. (0,58 видеокадр)
[Профиль] [ЛС]
Показать сообщения:    

Текущее время: Сегодня 06:07

Часовой пояс: GMT



Вы не можете начинать темы
Вы не можете отвечать на сообщения
Вы не можете редактировать свои сообщения
Вы не можете удалять свои сообщения
Вы не можете голосовать в опросах
Вы не можете прикреплять файлы к сообщениям
Вы не можете скачивать файлы